Jump to content

Dobrodošli na Balkandownload.org
Tražite domaće knjige, exyu magazine, sinhronizirane crtane filmove, PC i ostale igre, strane i domaće filmove, dokumentarce, stranu i domaću muziku, itd. ? Ne morate tražiti dalje jer sve ćete to naći kod nas, uredno postavljeno i spremno za download. Osim toga registracijom možete sudjelovati u raznim postojećim temama na forumu, otvarati nove teme, sudjelovati u chatu i još mnogo toga. Ako već imaš otvoren račun, logiraj se ovde ,a ako želiš saznati zašto smo najbolji otvori novi račun i uverite se sami :)
Photo

Ustav Republike Hrvatske (2016)

Nebojša Glogovac Rajko Grlić

3 replies to this topic

#1
BD_TV

BD_TV

    Gold Member

  • Sponsor
  • PipPipPipPipPipPip
  • 8,689 posts
  • 510051 thanks

Ustav Republike Hrvatske (2016) DVDRip x264 AC3 5.1 - BD4YU

 

 

xj_ZGay_E.jpg

Please Login or Register to see this Hidden Content

Radnja filma:

Priča o četvero ljudi koji žive u istoj zgradi i zaziru jedni od drugih jer se razlikuju po imovinskom statusu, seksualnim navikama, nacionalnosti i vjeri. I vjerojatno nikada ne bi međusobno prozborili da ih nesreća na to ne natjera i učini međusobno ovisnim. To je ljubavna priča o mržnji, koja zaobilazi establišment i razotkriva sve naše netrpeljivosti, predrasude i mržnju prema različitostima. Priča o hrabrosti da danas budeš ono što jesi i pokušaju da se unatoč svemu voli.


Glumci   Nebojša Glogovac, Dejan Aćimović, Ksenija Marinković
Redatelj : Rajko Grlić
Producent : Rudolf Biermann, Mike Downey, Dejan Miloshevski
Scenarist :   Rajko Grlić, Ante Tomić

 

OXc48Sw.jpg

 

1K96H2x.jpg

 

 

 

Stisnite dugme thanks da vidite linkove za download

Hidden Content
You'll be able to see the hidden content once you thank this post.

 

HRISTOS VASKRSE!



Thanked by 1714 Members:

#2
Wolf 13

Wolf 13

    Advanced Member

  • Members
  • PipPipPip
  • 426 posts
  • 33667 thanks
Ustav Republike Hrvatske (2016) DVDrip DD5.1 x264 by Wolf
(MKV) HQ
 
VRKo3fn.jpg
 

Please Login or Register to see this Hidden Content

 

 

General
Unique ID                   : 155695257220915808223967430274005369364 (0x7521D0D8CC6E57F203279868EF288214)
Complete name               : Ustav Republike Hrvatske (2016) DVDrip AC3 5.1 x264 by Wolf.mkv
Format                      : Matroska
Format version              : Version 4 / Version 2
File size                   : 1.11 GiB
Duration                    : 1 h 30 min
Overall bit rate            : 1 757 kb/s
Encoded date                : UTC 2018-12-07 20:01:39 / UTC 2018-12-07T10:44:04Z
Writing application         : mkvmerge v29.0.0 ('Like It Or Not') 64-bit
Writing library             : libebml v1.3.6 + libmatroska v1.4.9 / Lavf57.7.2
 
Video
ID                          : 1
Format                      : AVC
Format/Info                 : Advanced Video Codec
Format profile              : [email protected]
Format settings             : CABAC / 8 Ref Frames
Format settings, CABAC      : Yes
Format settings, ReFrames   : 8 frames
Codec ID                    : V_MPEG4/ISO/AVC
Duration                    : 1 h 30 min
Bit rate                    : 1 500 kb/s
Width                       : 720 pixels
Height                      : 568 pixels
Display aspect ratio        : 16:9
Frame rate mode             : Constant
Frame rate                  : 25.000 FPS
Color space                 : YUV
Chroma subsampling          : 4:2:0
Bit depth                   : 8 bits
Scan type                   : Progressive
Bits/(Pixel*Frame)          : 0.147
Stream size                 : 944 MiB (83%)
Title                       : Ustav Republike Hrvatske (2016)
Writing library             : x264 core 155 r2901 7d0ff22
Encoding settings           : cabac=1 / ref=8 / deblock=1:-1:-1 / analyse=0x3:0x133 / me=umh / subme=9 / psy=1 / psy_rd=1.00:0.15 / mixed_ref=1 / me_range=16 / chroma_me=1 / trellis=2 / 8x8dct=1 / cqm=0 / deadzone=21,11 / fast_pskip=1 / chroma_qp_offset=-3 / threads=6 / lookahead_threads=1 / sliced_threads=0 / nr=0 / decimate=1 / interlaced=0 / bluray_compat=0 / constrained_intra=0 / bframes=3 / b_pyramid=2 / b_adapt=2 / b_bias=0 / direct=3 / weightb=1 / open_gop=0 / weightp=2 / keyint=250 / keyint_min=25 / scenecut=40 / intra_refresh=0 / rc_lookahead=60 / rc=2pass / mbtree=1 / bitrate=1500 / ratetol=1.0 / qcomp=0.60 / qpmin=0 / qpmax=69 / qpstep=4 / cplxblur=20.0 / qblur=0.5 / vbv_maxrate=300000 / vbv_bufsize=300000 / nal_hrd=none / filler=0 / ip_ratio=1.40 / aq=1:1.00
Language                    : Croatian
Default                     : Yes
Forced                      : No
Color range                 : Limited
Color primaries             : BT.601 PAL
Transfer characteristics    : BT.709
Matrix coefficients         : BT.601
Statistics Tags Issue       : mkvmerge v29.0.0 ('Like It Or Not') 64-bit 2018-12-07 20:01:39 / mkvmerge v29.0.0 ('Like It Or Not') 64-bit 2018-12-07 20:01:39 / UTC 2018-12-07T10:44:04Z
FromStats_BitRate           : 1499365
FromStats_Duration          : 01:30:03.920000000
FromStats_FrameCount        : 135098
FromStats_StreamSize        : 1012806490
 
Audio
ID                          : 2
Format                      : AC-3
Format/Info                 : Audio Coding 3
Codec ID                    : A_AC3
Duration                    : 1 h 30 min
Bit rate mode               : Constant
Bit rate                    : 256 kb/s
Channel(s)                  : 6 channels
Channel positions           : Front: L C R, Side: L R, LFE
Sampling rate               : 48.0 kHz
Frame rate                  : 31.250 FPS (1536 SPF)
Bit depth                   : 16 bits
Compression mode            : Lossy
Delay relative to video     : -80 ms
Stream size                 : 165 MiB (15%)
Title                       : Ustav Republike Hrvatske (2016)
Language                    : Croatian
Service kind                : Complete Main
Default                     : Yes
Forced                      : No
Statistics Tags Issue       : mkvmerge v29.0.0 ('Like It Or Not') 64-bit 2018-12-07 20:01:39 / mkvmerge v29.0.0 ('Like It Or Not') 64-bit 2018-12-07 20:01:39 / UTC 2018-12-07T10:44:04Z
FromStats_BitRate           : 256000
FromStats_Duration          : 01:30:04.000000000
FromStats_FrameCount        : 168875
FromStats_StreamSize        : 172928000
 
epYscVA.png
Hidden Content
You'll be able to see the hidden content once you thank this post.
 
i2zqoh1.png
GdLdrKs.jpg

Edited by Wolf 13, 09 May 2019 - 22:55.


Thanked by 300 Members:

#3
Zoran_

Zoran_

    Gold Member

  • VIP
  • PipPipPipPipPipPip
  • 6,006 posts
  • 150081 thanks
Ustav Republike Hrvatske (2016)
 
 
HhZfAhD.png
 
Su6Ksi6.jpg
 

Please Login or Register to see this Hidden Content

 
Priča o četvero ljudi koji žive u istoj zgradi i zaziru jedni od drugih jer se razlikuju po imovinskom statusu, seksualnim navikama, nacionalnosti i vjeri. I vjerojatno nikada ne bi međusobno prozborili da ih nesreća na to ne natjera i učini međusobno ovisnim. To je ljubavna priča o mržnji, koja zaobilazi establišment i razotkriva sve naše netrpeljivosti, predrasude i mržnju prema različitostima. Priča o hrabrosti da danas budeš ono što jesi i pokušaju da se unatoč svemu voli.
 
9uykyqs4t2t.png
 
9qZpkSV.gif
 
VNXKCyC.jpg
 
Oets6ur.gif
 
Ustav Republike Hrvatske (2016) DVDRip.x264.mkv 
 
SFYUbuP.jpg
 
Hidden Content
You'll be able to see the hidden content once you thank this post.

Molbe za moje linkove, šaljite na PP.

 

Zabranjeno je kopiranje mojih linkova,reupload i postavljanje na druge forume!


Thanked by 79 Members:

#4
kostolomac

kostolomac

    Advanced Member

  • Members
  • PipPipPip
  • 148 posts
  • 12757 thanks

Ustav.Republike.Hrvatske.2016.720p.WEBRip.x264-NEO

YjYSjT4.jpg
 

Please Login or Register to see this Hidden Content

 

Priča o četvero ljudi koji žive u istoj zgradi i zaziru jedni od drugih jer se razlikuju po imovinskom statusu, seksualnim navikama, nacionalnosti i vjeri. I vjerojatno nikada ne bi međusobno prozborili da ih nesreća na to ne natjera i učini međusobno ovisnim. To je ljubavna priča o mržnji, koja zaobilazi establišment i razotkriva sve naše netrpeljivosti, predrasude i mržnju prema različitostima. Priča o hrabrosti da danas budeš ono što jesi i pokušaju da se unatoč svemu voli.

 

Hidden Content
You'll be able to see the hidden content once you thank this post.



Thanked by 39 Members:
KumZorzo , kikeron , jaganjac , bojan1701 , stapet , igormiskovic , ivchanb , star.proc , miaema2011 , icaleptir , biljanativ , seados , perishaa , pera.J.detlic , i_023 , khftebvio , Yuppicide , ivandddivan , denimiko1 , Dule016 , stacker170472 , hectrix , sajbna , blauer , danep , dhorvat08 , Urosito , nnnxsz , seisgk , goraneo , sabor , anelkos , matematic , xejt , bbocko , senilni , fffunkymannn , fritz200300 , stankokljajic




Also tagged with one or more of these keywords: Nebojša Glogovac, Rajko Grlić

0 user(s) are reading this topic

0 members, 0 guests, 0 anonymous users