Jump to content

Dobrodošli na Balkandownload.org
Tražite domaće knjige, exyu magazine, sinhronizirane crtane filmove, PC i ostale igre, strane i domaće filmove, dokumentarce, stranu i domaću muziku, itd. ? Ne morate tražiti dalje jer sve ćete to naći kod nas, uredno postavljeno i spremno za download. Osim toga registracijom možete sudjelovati u raznim postojećim temama na forumu, otvarati nove teme, sudjelovati u chatu i još mnogo toga. Ako već imaš otvoren račun, logiraj se ovde ,a ako želiš saznati zašto smo najbolji otvori novi račun i uverite se sami :)
Photo

Žena sa slomljenim nosem (2010)


3 replies to this topic

#1
ludimilojko88

ludimilojko88

    Advanced Member

  • Members
  • PipPipPip
  • 368 posts
  • 28227 thanks

Žena sa slomljenim nosem (2010)

 

 

Zena_sa_slomljenim_nosem_2010_.mp4.jpg



Thanked by 130 Members:

#2
nikolakralj100

nikolakralj100

    Advanced Member

  • Members
  • PipPipPip
  • 346 posts
  • 20489 thanks

DVDr

 

rHa3aiK.jpg

 

6Op8SrX.jpg

 

Hidden Content
You'll be able to see the hidden content once you thank this post.


Thanked by 84 Members:

#3
Wolf 13

Wolf 13

    Advanced Member

  • Members
  • PipPipPip
  • 426 posts
  • 33341 thanks
Zena sa slomljenim nosem (2010) DVDrip DD5.1 x264 by Wolf
(MKV) HQ
 
rmYmpGy.jpg
 

Please Login or Register to see this Hidden Content

 

General
Unique ID                   : 41269000038804535680115616699801761189 (0x1F0C1ECBA69D423AAFB1FCE997C975A5)
Complete name               : Zena sa slomljenim nosem (2010) DVDrip DD5.1 x264 by Wolf.mkv
Format                      : Matroska
Format version              : Version 4
File size                   : 1.22 GiB
Duration                    : 1 h 39 min
Overall bit rate            : 1 757 kb/s
Encoded date                : UTC 2019-01-25 11:44:30
Writing application         : mkvmerge v30.1.0 ('Forever And More') 64-bit
Writing library             : libebml v1.3.6 + libmatroska v1.4.9 / Lavf58.20.100
 
Video
ID                          : 1
Format                      : AVC
Format/Info                 : Advanced Video Codec
Format profile              : [email protected]
Format settings             : CABAC / 8 Ref Frames
Format settings, CABAC      : Yes
Format settings, ReFrames   : 8 frames
Codec ID                    : V_MPEG4/ISO/AVC
Duration                    : 1 h 39 min
Bit rate                    : 1 500 kb/s
Width                       : 720 pixels
Height                      : 576 pixels
Display aspect ratio        : 16:9
Frame rate mode             : Constant
Frame rate                  : 25.000 FPS
Standard                    : PAL
Color space                 : YUV
Chroma subsampling          : 4:2:0
Bit depth                   : 8 bits
Scan type                   : Progressive
Bits/(Pixel*Frame)          : 0.145
Stream size                 : 1.04 GiB (85%)
Title                       : Zena sa slomljenim nosem (2010)
Writing library             : x264 core 157 r2935 545de2f
Encoding settings           : cabac=1 / ref=8 / deblock=1:-1:-1 / analyse=0x3:0x133 / me=umh / subme=9 / psy=1 / psy_rd=1.00:0.15 / mixed_ref=1 / me_range=16 / chroma_me=1 / trellis=2 / 8x8dct=1 / cqm=0 / deadzone=21,11 / fast_pskip=1 / chroma_qp_offset=-3 / threads=6 / lookahead_threads=1 / sliced_threads=0 / nr=0 / decimate=1 / interlaced=0 / bluray_compat=0 / constrained_intra=0 / bframes=3 / b_pyramid=2 / b_adapt=2 / b_bias=0 / direct=3 / weightb=1 / open_gop=0 / weightp=2 / keyint=250 / keyint_min=25 / scenecut=40 / intra_refresh=0 / rc_lookahead=60 / rc=2pass / mbtree=1 / bitrate=1500 / ratetol=1.0 / qcomp=0.60 / qpmin=0 / qpmax=69 / qpstep=4 / cplxblur=20.0 / qblur=0.5 / vbv_maxrate=300000 / vbv_bufsize=300000 / nal_hrd=none / filler=0 / ip_ratio=1.40 / aq=1:1.00
Language                    : Serbian
Default                     : Yes
Forced                      : No
Color range                 : Limited
Color primaries             : BT.601 PAL
Transfer characteristics    : BT.709
Matrix coefficients         : BT.601
 
Audio
ID                          : 2
Format                      : E-AC-3
Format/Info                 : Enhanced AC-3
Commercial name             : Dolby Digital Plus
Codec ID                    : A_EAC3
Duration                    : 1 h 39 min
Bit rate mode               : Constant
Bit rate                    : 256 kb/s
Channel(s)                  : 6 channels
Channel layout              : L R C LFE Ls Rs
Sampling rate               : 48.0 kHz
Frame rate                  : 31.250 FPS (1536 SPF)
Compression mode            : Lossy
Delay relative to video     : -5 ms
Stream size                 : 182 MiB (15%)
Title                       : Zena sa slomljenim nosem (2010)
Language                    : Serbian
Service kind                : Complete Main
Default                     : Yes
Forced                      : No
 
epYscVA.png
Hidden Content
You'll be able to see the hidden content once you thank this post.
 
njLEyAz.png
Dgb0hpW.jpg

Edited by Wolf 13, 25 January 2019 - 15:32.


Thanked by 94 Members:

#4
Zoran_

Zoran_

    Gold Member

  • VIP
  • PipPipPipPipPipPip
  • 5,983 posts
  • 149100 thanks
Žena sa slomljenim nosem (2010)
 
 
0MgY.png
 
Su6Ksi6.jpg
 

Please Login or Register to see this Hidden Content

 
Mlada zena sa slomljenim nosem izadje iz taksija u saobracajnoj guzvi na mostu, i baci se u reku. U taksiju ostaje beba. To izazove lanac reakcija troje ocevidaca, koji ce na razlicite nacine promeniti njihove zivote. Taksista mizantrop, ostavljen sa bebom, pocinje da se bori za zivot zene sa slomljenim nosem… Mlada profesorka suocena sa zaljubljenoscu tinejdzera uspeva da prevazide svoju zivotnu traumu. Neobicna apotekarka napusta verenika otkrivajuci da je brat njene prve ljubavi, mozda onaj pravi. U sudarima sa nemogucim ljubavima ljudi spasavaju jedni druge, prevazilaze emocionalne oziljke, i ponovo otkrivaju prave razloge za zivot.
 
ny6mmp9jxa.png
 
0Mgv.gif
 
0Mgn.jpg
 
Oets6ur.gif
 
Zena sa slomljenim nosem (2010) DVDRip.x264.mkv
 
SFYUbuP.jpg
 
Hidden Content
You'll be able to see the hidden content once you thank this post.

Molbe za moje linkove, šaljite na PP.

 

Zabranjeno je kopiranje mojih linkova,reupload i postavljanje na druge forume!


Thanked by 51 Members:
xenocid , goransokolovic.fr , sheretoto , Zare94 , lilke , rikee , damir977 , Verdeja , kockari , jovan2020 , Ilijaax , rakalica , fladoje , Natalija83 , mostar , banexer68 , MAXA , sasham060 , kanki , Boriz Grozni , IvanK , sasha7 , emcika , igorkolbas , Cocco Bill , mikula11 , konami , nm2015 , sdlder , melman , mciplic , billypiton , borislav022 , Simtsche , maldivi , Alamo74 , Franci , Dadohh , dj1van , maruj , Zelenac1 , dreidolin , cigoyner , draganiuss , Milfir , salgija , dadodadic , GORANJ79 , beograd1960' , sweep27 , Jokso



0 user(s) are reading this topic

0 members, 0 guests, 0 anonymous users