Jump to content

Dobrodošli na Balkandownload.org
Tražite domaće knjige, exyu magazine, sinhronizirane crtane filmove, PC i ostale igre, strane i domaće filmove, dokumentarce, stranu i domaću muziku, itd. ? Ne morate tražiti dalje jer sve ćete to naći kod nas, uredno postavljeno i spremno za download. Osim toga registracijom možete sudjelovati u raznim postojećim temama na forumu, otvarati nove teme, sudjelovati u chatu i još mnogo toga. Ako već imaš otvoren račun, logiraj se ovde ,a ako želiš saznati zašto smo najbolji otvori novi račun i uverite se sami :)
Photo

Zimovanje u Jakobsfeldu (1975)


2 replies to this topic

#1
Zoran_

Zoran_

    Gold Member

  • VIP
  • PipPipPipPipPipPip
  • 5,990 posts
  • 149783 thanks

Zimovanje u Jakobsfeldu (1975)


0huA.png

imdb6.jpg
 

Please Login or Register to see this Hidden Content

Dva decaka upucena su iz partizanskog odreda u selo da prezime. Jedan se usput razboli, drugi odlazi u obližnje nemacko selo gde uspeva da se zaposli kao sluga. Nocu krišom neguje druga sakrivenog u obližnjoj mocvari da bi ga, najzad, sakrio u gazdinoj štali. Zimovanje traje sve dok ih ilegalna oslobodilacka organizacija ne otkrije i izvede iz sela


Molbe za moje linkove, šaljite na PP.

 

Zabranjeno je kopiranje mojih linkova,reupload i postavljanje na druge forume!


Thanked by 61 Members:
ArizonaSmith , SOVARIUT , senad68 , salgija , kanki , pepe333 , zoransoskic , jkorolija , Zelenac1 , stjepank67 , evolution , jovicai , tomaomoljica , lazukic , draganadragana2010 , jimjarmusch , rid023 , goransd , ivory , mrcho , burgo , zumi2 , bagirin , direhard , Hornet_UE , dajver , DenisBan , zburek , Rahoveci , kumekonja , karenca , Erin Navan , dakle , Remiza13 , jockan , milan7656 , ETKINNI , pantosije , šoja187 , zvukmir , Daachoo , Smoke25 , mmilos028 , matic87 , Astrocyte , Oprosty , hitman84 , baki76 , mehonja , ara66 , Ljubisa Spasojevic , chadjox , Auntiffr , krkvis , mikula11 , aleksandar23 , vrac1 , noiz , settim , zoltan , plavi59

#2
Zoran_

Zoran_

    Gold Member

  • VIP
  • PipPipPipPipPipPip
  • 5,990 posts
  • 149783 thanks
Zimovanje u Jakobsfeldu (1975)
 
 
0huA.png
 
imdb6.jpg
 

Please Login or Register to see this Hidden Content

 
Dva decaka upucena su iz partizanskog odreda u selo da prezime. Jedan se usput razboli, drugi odlazi u obližnje nemacko selo gde uspeva da se zaposli kao sluga. Nocu krišom neguje druga sakrivenog u obližnjoj mocvari da bi ga, najzad, sakrio u gazdinoj štali. Zimovanje traje sve dok ih ilegalna oslobodilacka organizacija ne otkrije i izvede iz sela
 
jjazfs2ziyu.png
 
0hu5.gif
 
0hu6.jpg
 
downloade0cdd.gif
 
Zimovanje u Jakobsfeldu (1975) DVDRip.XviD.avi
 
SFYUbuP.jpg
 
Hidden Content
You'll be able to see the hidden content once you thank this post.

Molbe za moje linkove, šaljite na PP.

 

Zabranjeno je kopiranje mojih linkova,reupload i postavljanje na druge forume!


Thanked by 60 Members:
Ismet1968 , ArizonaSmith , SOVARIUT , vlast69 , goransokolovic.fr , lilke , Boss84 , San Lorenzo , Edifier , mondeo13 , Aleks1971 , nikolasampanjac , federer , zvezdas , tushma , dajkan , Stefi_1997 , kormi17 , Cocco Bill , Jokso , Poljo , james12320 , abc123 , Jay1972N , Prene , zoran48 , GRT7 , dejan.petrovic , pina , ljudozderka8 , johnrangel25 , sale pn , megastraus , senad68 , salgija , dj1van , rafael13 , kanki , pepe333 , jimjarmusch , Vronsky , danep , novicanovica , toco222 , kockari , jkorolija , MP22 , matematic , robi_bak , Biotloneta , stjepank67 , Franci , Alamo74 , xonpe67 , BigDaddy , myschko13 , 011gogo , Nebojsa1985 , krkvis , Miki_Kiki_Riki

#3
Wolf 13

Wolf 13

    Advanced Member

  • Members
  • PipPipPip
  • 426 posts
  • 33609 thanks
Zimovanje u Jakobsfeldu (1975) DVDrip DD5.1 x264 by Wolf
(MKV)
 
EzE9Cbz.jpg
 

Please Login or Register to see this Hidden Content

 

 

General
Unique ID                   : 22137059989182029131637736734459650324 (0x10A77152E976B6076D21347ABBFB6114)
Complete name               : Zimovanje u Jakobsfeldu (1975) DVDrip DD5.1 x264 by Wolf.mkv
Format                      : Matroska
Format version              : Version 4
File size                   : 1.41 GiB
Duration                    : 1 h 48 min
Overall bit rate            : 1 856 kb/s
Encoded date                : UTC 2019-02-28 18:21:17
Writing application         : mkvmerge v31.0.0 ('Dolores In A Shoestand') 64-bit
Writing library             : libebml v1.3.6 + libmatroska v1.4.9 / Lavf58.20.100
 
Video
ID                          : 1
Format                      : AVC
Format/Info                 : Advanced Video Codec
Format profile              : [email protected]
Format settings             : CABAC / 16 Ref Frames
Format settings, CABAC      : Yes
Format settings, ReFrames   : 16 frames
Codec ID                    : V_MPEG4/ISO/AVC
Duration                    : 1 h 48 min
Bit rate                    : 1 600 kb/s
Width                       : 700 pixels
Height                      : 572 pixels
Display aspect ratio        : 16:9
Original display aspect rat : 4:3
Frame rate mode             : Constant
Frame rate                  : 25.000 FPS
Color space                 : YUV
Chroma subsampling          : 4:2:0
Bit depth                   : 8 bits
Scan type                   : Progressive
Bits/(Pixel*Frame)          : 0.160
Stream size                 : 1.21 GiB (86%)
Title                       : Zimovanje u Jakobsfeldu (1975)
Writing library             : x264 core 157 r2935 545de2f
Encoding settings           : cabac=1 / ref=16 / deblock=1:-1:-1 / analyse=0x3:0x133 / me=umh / subme=10 / psy=1 / psy_rd=1.00:0.15 / mixed_ref=1 / me_range=24 / chroma_me=1 / trellis=2 / 8x8dct=1 / cqm=0 / deadzone=21,11 / fast_pskip=1 / chroma_qp_offset=-3 / threads=6 / lookahead_threads=1 / sliced_threads=0 / nr=0 / decimate=1 / interlaced=0 / bluray_compat=0 / constrained_intra=0 / bframes=8 / b_pyramid=2 / b_adapt=2 / b_bias=0 / direct=3 / weightb=1 / open_gop=0 / weightp=2 / keyint=250 / keyint_min=25 / scenecut=40 / intra_refresh=0 / rc_lookahead=60 / rc=2pass / mbtree=1 / bitrate=1600 / ratetol=1.0 / qcomp=0.60 / qpmin=0 / qpmax=69 / qpstep=4 / cplxblur=20.0 / qblur=0.5 / vbv_maxrate=300000 / vbv_bufsize=300000 / nal_hrd=none / filler=0 / ip_ratio=1.40 / aq=1:1.00
Language                    : Serbian
Default                     : Yes
Forced                      : No
Color range                 : Limited
Color primaries             : BT.601 PAL
Transfer characteristics    : BT.709
Matrix coefficients         : BT.601
 
Audio
ID                          : 2
Format                      : E-AC-3
Format/Info                 : Enhanced AC-3
Commercial name             : Dolby Digital Plus
Codec ID                    : A_EAC3
Duration                    : 1 h 48 min
Bit rate mode               : Constant
Bit rate                    : 256 kb/s
Channel(s)                  : 6 channels
Channel layout              : L R C LFE Ls Rs
Sampling rate               : 48.0 kHz
Frame rate                  : 31.250 FPS (1536 SPF)
Compression mode            : Lossy
Delay relative to video     : -5 ms
Stream size                 : 198 MiB (14%)
Title                       : Zimovanje u Jakobsfeldu (1975)
Language                    : Serbian
Service kind                : Complete Main
Default                     : Yes
Forced                      : No
 
epYscVA.png
Hidden Content
You'll be able to see the hidden content once you thank this post.
zbNKcak.jpg
Hidden Content
You'll be able to see the hidden content once you thank this post.
 
F1Nlf6Z.png
bJOBs7j.jpg

Edited by Wolf 13, 18 March 2019 - 19:35.


Thanked by 32 Members:
bateboris , magicmag , lilke , dedamiro , runjaa , chefko , sofronijep , delare2222 , zoransoskic , montezuma , NorthGate , tushma , KIXX , r2d2 , danielb028 , balkanac011 , icaleptir , Ismet1968 , stacker170472 , krkvis , james12320 , Registriran , rafael13 , salgija , Franci , Zelenac1 , Prene , GRT7 , dejan.petrovic , fffunkymannn , Biotloneta , beograd1960'



0 user(s) are reading this topic

0 members, 0 guests, 0 anonymous users