Jump to content

Dobrodošli na Balkandownload.org
Tražite domaće knjige, exyu magazine, sinhronizirane crtane filmove, PC i ostale igre, strane i domaće filmove, dokumentarce, stranu i domaću muziku, itd. ? Ne morate tražiti dalje jer sve ćete to naći kod nas, uredno postavljeno i spremno za download. Osim toga registracijom možete sudjelovati u raznim postojećim temama na forumu, otvarati nove teme, sudjelovati u chatu i još mnogo toga. Ako već imaš otvoren račun, logiraj se ovde ,a ako želiš saznati zašto smo najbolji otvori novi račun i uverite se sami :)
Photo

100 minuta slave (2004)


3 replies to this topic

#1
Zoran_

Zoran_

    Gold Member

  • VIP
  • PipPipPipPipPipPip
  • 6,006 posts
  • 150083 thanks

100 minuta slave (2004)


TBF1EpN.png

Su6Ksi6.jpg
 

Please Login or Register to see this Hidden Content

U fokusu ovog kostimiranog filma je priča o nesretnoj ljubavi gluhonijeme slikarice Slave Raškaj i Bele Čikoša, njenog učitelja slikanja. Film ne prati slijepo biografiju slikarice koja će postati jedno od najznačajnijih imena hrvatskog slikarstva na prijelazu iz 19. u 20. stoljeće, već se više posvećuje njenoj ljubavi prema Čikošu koju je on uništio i nije htio potpuno prihvatiti iz straha i obzira prema društvu, ali i traženju ljubavi i priznanja uopće.


Molbe za moje linkove, šaljite na PP.

 

Zabranjeno je kopiranje mojih linkova,reupload i postavljanje na druge forume!


Thanked by 63 Members:
Dijana1974 , chefko , draganiuss , novicanovica , Нинорота , jovicai , nenadbp , malonorat , b50andi , dreidolin , seisgk , bubimiri , pelinho , Delamaris , icaleptir , opetopet , doboj92 , GAGIStudio , fullname , danijeladanijel , graf , kockari , radionica1 , danep , alencom1987 , millevoy , Sarma021 , katevojtković , Charlliemiladin , josipadurdevic , Denny82 , DenisBan , vanjavanjavanja , milovan234 , Flegmatico , Bronh1 , maruj , Vilko_ , akiro , tihoj , zvukmir , oskIII , mustafa_50 , emes , brankoz13 , Dragutin2020 , miljevic , Cocco Bill , liquid , zagortnt , draganbauk , nenad027 , mimi01 , kizivoje , damirprc , Pneus68 , mikula11 , Prene , Zelenac1 , plavi59 , slop , mesele , mrmotija

#2
Gagisha

Gagisha

    Silver Member

  • Moderator
  • PipPipPipPipPip
  • 2,575 posts
  • 69782 thanks
  • LocationPeckam, London, UK

100 minuta slave (2004)

 

 

 

VtSWOxV.png

 

 

 

rq7NJJk.jpg

 

 

eSC650l.png


Napomena: Za otpakivanje koristite najnoviju verziju programa Win Rar

 

 

Hidden Content
You'll be able to see the hidden content once you thank this post.


Thanked by 27 Members:
pluriel12309 , Simtsche , borislav022 , dubo , chefko , draganiuss , kerpes , salgija , kresomirovic , iamzlatan , Нинорота , nenadbp , urs517 , nizde ml , bubimiri , mesele , zagortnt , goraneo , fullname , danijeladanijel , miki-maus23 , Cocco Bill , danep , alencom1987 , morse , mikula11 , dhorvat08

#3
Wolf 13

Wolf 13

    Advanced Member

  • Members
  • PipPipPip
  • 426 posts
  • 33667 thanks
100 minuta slave (2004) DVDrip DD5.1 x264 by Wolf
(MKV) HQ
 
hDkCcLR.jpg
 

Please Login or Register to see this Hidden Content

 

General
Unique ID                   : 324224717544306374351135134904195695177 (0xF3EB68C2D51BB9BC60433F6D2B334249)
Complete name               : 100 minuta slave (2004) DVDrip DD5.1 x264 by Wolf.mkv
Format                      : Matroska
Format version              : Version 4
File size                   : 1.26 GiB
Duration                    : 1 h 36 min
Overall bit rate            : 1 856 kb/s
Encoded date                : UTC 2019-03-26 08:27:53
Writing application         : mkvmerge v32.0.0 ('Astral Progressions') 64-bit
Writing library             : libebml v1.3.7 + libmatroska v1.5.0 / Lavf58.20.100
 
Video
ID                          : 1
Format                      : AVC
Format/Info                 : Advanced Video Codec
Format profile              : [email protected]
Format settings             : CABAC / 16 Ref Frames
Format settings, CABAC      : Yes
Format settings, ReFrames   : 16 frames
Codec ID                    : V_MPEG4/ISO/AVC
Duration                    : 1 h 36 min
Bit rate                    : 1 600 kb/s
Width                       : 700 pixels
Height                      : 572 pixels
Display aspect ratio        : 16:9
Original display aspect rat : 16:9
Frame rate mode             : Constant
Frame rate                  : 25.000 FPS
Color space                 : YUV
Chroma subsampling          : 4:2:0
Bit depth                   : 8 bits
Scan type                   : Progressive
Bits/(Pixel*Frame)          : 0.160
Stream size                 : 1.08 GiB (86%)
Title                       : 100 minuta slave (2004)
Writing library             : x264 core 157 r2935 545de2f
Encoding settings           : cabac=1 / ref=16 / deblock=1:-1:-1 / analyse=0x3:0x133 / me=umh / subme=10 / psy=1 / psy_rd=1.00:0.15 / mixed_ref=1 / me_range=24 / chroma_me=1 / trellis=2 / 8x8dct=1 / cqm=0 / deadzone=21,11 / fast_pskip=1 / chroma_qp_offset=-3 / threads=6 / lookahead_threads=1 / sliced_threads=0 / nr=0 / decimate=1 / interlaced=0 / bluray_compat=0 / constrained_intra=0 / bframes=8 / b_pyramid=2 / b_adapt=2 / b_bias=0 / direct=3 / weightb=1 / open_gop=0 / weightp=2 / keyint=250 / keyint_min=25 / scenecut=40 / intra_refresh=0 / rc_lookahead=60 / rc=2pass / mbtree=1 / bitrate=1600 / ratetol=1.0 / qcomp=0.60 / qpmin=0 / qpmax=69 / qpstep=4 / cplxblur=20.0 / qblur=0.5 / vbv_maxrate=300000 / vbv_bufsize=300000 / nal_hrd=none / filler=0 / ip_ratio=1.40 / aq=1:1.00
Language                    : Croatian
Default                     : Yes
Forced                      : No
Color range                 : Limited
Color primaries             : BT.601 PAL
Transfer characteristics    : BT.709
Matrix coefficients         : BT.601
 
Audio
ID                          : 2
Format                      : E-AC-3
Format/Info                 : Enhanced AC-3
Commercial name             : Dolby Digital Plus
Codec ID                    : A_EAC3
Duration                    : 1 h 36 min
Bit rate mode               : Constant
Bit rate                    : 256 kb/s
Channel(s)                  : 6 channels
Channel layout              : L R C LFE Ls Rs
Sampling rate               : 48.0 kHz
Frame rate                  : 31.250 FPS (1536 SPF)
Compression mode            : Lossy
Delay relative to video     : -5 ms
Stream size                 : 178 MiB (14%)
Title                       : 100 minuta slave (2004)
Language                    : Croatian
Service kind                : Complete Main
Default                     : Yes
Forced                      : No
 
epYscVA.png
Hidden Content
You'll be able to see the hidden content once you thank this post.
 
6GRXWgF.png
Z5pMsct.jpg

Edited by Wolf 13, 26 March 2019 - 11:15.


Thanked by 36 Members:
Isidora Dannkan , r2d2 , pluriel12309 , novicanovica , borislav022 , dukson1959 , beograd1960' , Intelus , chefko , draganiuss , kerpes , salgija , rafael13 , miljanjo , danijeladanijel , iamzlatan , mercury99 , jovicai , Jackie Chan , nixonns , js1984 , malonorat , emotivac , Franci , Prene , b50andi , denimiko1 , danep , bratobulje , bubimiri , tole321 , akiro , Zelenac1 , zagortnt , Miki_Kiki_Riki , iceman_79

#4
Zoran_

Zoran_

    Gold Member

  • VIP
  • PipPipPipPipPipPip
  • 6,006 posts
  • 150083 thanks
100 minuta slave (2004)
 
 
 
6xwztg7ysre.png
 
OxBwjBF.gif
 
QLCzclQ.jpg
 
Oets6ur.gif
 
100 minuta slave (2004) DVDRip.x264.mkv 
 
SFYUbuP.jpg
 
Hidden Content
You'll be able to see the hidden content once you thank this post.

Molbe za moje linkove, šaljite na PP.

 

Zabranjeno je kopiranje mojih linkova,reupload i postavljanje na druge forume!


Thanked by 16 Members:
Jorgos , goransokolovic.fr , Dijana1974 , zorandju , jumanjinz , icaleptir , Zelenac1 , borislav022 , mspumpe , Franci , dubo , alexxxxa , Miki_Kiki_Riki , Jokso , beograd1960' , zoran48



0 user(s) are reading this topic

0 members, 0 guests, 0 anonymous users