Jump to content

Dobrodošli na Balkandownload.org
Tražite domaće knjige, exyu magazine, sinhronizirane crtane filmove, PC i ostale igre, strane i domaće filmove, dokumentarce, stranu i domaću muziku, itd. ? Ne morate tražiti dalje jer sve ćete to naći kod nas, uredno postavljeno i spremno za download. Osim toga registracijom možete sudjelovati u raznim postojećim temama na forumu, otvarati nove teme, sudjelovati u chatu i još mnogo toga. Ako već imaš otvoren račun, logiraj se ovde ,a ako želiš saznati zašto smo najbolji otvori novi račun i uverite se sami :)
Photo

Cirkus Columbia (2010)


1 reply to this topic

#1
Wolf 13

Wolf 13

    Advanced Member

  • Members
  • PipPipPip
  • 426 posts
  • 33720 thanks
Cirkus Columbia (2010) DVDrip DD5.1 x264 by Wolf
(MKV) HQ
 
rMhdWFW.jpg
 

Please Login or Register to see this Hidden Content

 

General
Unique ID                   : 133046514637253226948795777656782618622 (0x6417D39F92687CA5E038735C55487FFE)
Complete name               : Cirkus Columbia (2010) DVDrip DD5.1 x264 by Wolf.mkv
Format                      : Matroska
Format version              : Version 4
File size                   : 1.38 GiB
Duration                    : 1 h 46 min
Overall bit rate            : 1 855 kb/s
Encoded date                : UTC 2019-03-30 17:33:09
Writing application         : mkvmerge v32.0.0 ('Astral Progressions') 64-bit
Writing library             : libebml v1.3.7 + libmatroska v1.5.0 / Lavf58.20.100
 
Video
ID                          : 1
Format                      : AVC
Format/Info                 : Advanced Video Codec
Format profile              : [email protected]
Format settings             : CABAC / 16 Ref Frames
Format settings, CABAC      : Yes
Format settings, ReFrames   : 16 frames
Codec ID                    : V_MPEG4/ISO/AVC
Duration                    : 1 h 46 min
Bit rate                    : 1 600 kb/s
Width                       : 720 pixels
Height                      : 436 pixels
Display aspect ratio        : 2.35:1
Frame rate mode             : Constant
Frame rate                  : 25.000 FPS
Color space                 : YUV
Chroma subsampling          : 4:2:0
Bit depth                   : 8 bits
Scan type                   : Progressive
Bits/(Pixel*Frame)          : 0.204
Stream size                 : 1.19 GiB (86%)
Title                       : Cirkus Columbia (2010)
Writing library             : x264 core 157 r2935 545de2f
Encoding settings           : cabac=1 / ref=16 / deblock=1:-1:-1 / analyse=0x3:0x133 / me=umh / subme=10 / psy=1 / psy_rd=1.00:0.15 / mixed_ref=1 / me_range=24 / chroma_me=1 / trellis=2 / 8x8dct=1 / cqm=0 / deadzone=21,11 / fast_pskip=1 / chroma_qp_offset=-3 / threads=6 / lookahead_threads=1 / sliced_threads=0 / nr=0 / decimate=1 / interlaced=0 / bluray_compat=0 / constrained_intra=0 / bframes=8 / b_pyramid=2 / b_adapt=2 / b_bias=0 / direct=3 / weightb=1 / open_gop=0 / weightp=2 / keyint=250 / keyint_min=25 / scenecut=40 / intra_refresh=0 / rc_lookahead=60 / rc=2pass / mbtree=1 / bitrate=1600 / ratetol=1.0 / qcomp=0.60 / qpmin=0 / qpmax=69 / qpstep=4 / cplxblur=20.0 / qblur=0.5 / vbv_maxrate=300000 / vbv_bufsize=300000 / nal_hrd=none / filler=0 / ip_ratio=1.40 / aq=1:1.00
Language                    : Bosnian
Default                     : Yes
Forced                      : No
Color range                 : Limited
Color primaries             : BT.601 PAL
Transfer characteristics    : BT.709
Matrix coefficients         : BT.601
 
Audio
ID                          : 2
Format                      : E-AC-3
Format/Info                 : Enhanced AC-3
Commercial name             : Dolby Digital Plus
Codec ID                    : A_EAC3
Duration                    : 1 h 46 min
Bit rate mode               : Constant
Bit rate                    : 256 kb/s
Channel(s)                  : 6 channels
Channel layout              : L R C LFE Ls Rs
Sampling rate               : 48.0 kHz
Frame rate                  : 31.250 FPS (1536 SPF)
Compression mode            : Lossy
Delay relative to video     : -5 ms
Stream size                 : 195 MiB (14%)
Title                       : Cirkus Columbia (2010)
Language                    : Bosnian
Service kind                : Complete Main
Default                     : Yes
Forced                      : No
 
epYscVA.png
Hidden Content
You'll be able to see the hidden content once you thank this post.
 
wVFFFHJ.png
jIhlkxf.jpg

Edited by Wolf 13, 30 March 2019 - 21:20.


Thanked by 111 Members:

#2
Zoran_

Zoran_

    Gold Member

  • VIP
  • PipPipPipPipPipPip
  • 6,008 posts
  • 150264 thanks
Cirkus Columbia (2010)
 
 
nMNNkld.png
 
Su6Ksi6.jpg
 

Please Login or Register to see this Hidden Content

 
Divko Buntić, sada bogat čovek, nakon godina egzila, vraća se u svoj rodni grad, s novom, mnogo mlađom ženom i novim Mercedesom. Željan je sitnih osveta, a prva njegova pobjda je izbacivanje bivše žene i sina iz kuće u kojoj su stanovali. No, onda se njegov sin Martin i njegova nova žena Azra zaljubljuju. Rat kuca na vrata malog grada i kada sve počinje izgledati izgubljeno za Divka, on dobije jednu stvar zbog koje se i vratio: svoju bivšu suprugu.
 
lxhx6o5351a.png
 
Y17HRy4.gif
 
Vq8KhCW.jpg
 
Oets6ur.gif
 
Cirkus Columbia (2010) DVDRip.x264.mkv
 
SFYUbuP.jpg
 
Hidden Content
You'll be able to see the hidden content once you thank this post.

Molbe za moje linkove, šaljite na PP.

 

Zabranjeno je kopiranje mojih linkova,reupload i postavljanje na druge forume!


Thanked by 53 Members:
FlegmaFX , miloradbo , Looper321 , Tom.Clements , mlubura , kockari , gledanjetekmi , Verdeja , jovan2020 , pelezic , jostomic , sinafeniks , pcdefender , ivanbanja , borislav022 , seisgk , bugsy , cigoyner , pero374 , pik021 , micelj , Cocco Bill , Zelenac1 , rial.basic , kybord , mciplic , djolezajecar , Bogdan2011 , mkluk , che040 , setac , maruj , Rand , 8C805w , Franci , Alamo74 , Miki_Kiki_Riki , opetopet , MaliIgicGregor , blauer , tihoj , Toronion , beograd1960' , Starfighter2 , satyr83 , woodooye , Jokso , millena.ocean , dragica , radonja86 , GORANJ79 , canexx , bubimiri



0 user(s) are reading this topic

0 members, 0 guests, 0 anonymous users