Jump to content

Dobrodošli na Balkandownload.org
Tražite domaće knjige, exyu magazine, sinhronizirane crtane filmove, PC i ostale igre, strane i domaće filmove, dokumentarce, stranu i domaću muziku, itd. ? Ne morate tražiti dalje jer sve ćete to naći kod nas, uredno postavljeno i spremno za download. Osim toga registracijom možete sudjelovati u raznim postojećim temama na forumu, otvarati nove teme, sudjelovati u chatu i još mnogo toga. Ako već imaš otvoren račun, logiraj se ovde ,a ako želiš saznati zašto smo najbolji otvori novi račun i uverite se sami :)
Photo

Pad u raj (2004)


2 replies to this topic

#1
Zoran_

Zoran_

    Gold Member

  • VIP
  • PipPipPipPipPipPip
  • 5,988 posts
  • 149556 thanks
Pad u raj (2004)
 
 
90Ekjyk.png
 
Su6Ksi6.jpg
 

Please Login or Register to see this Hidden Content

 
Filmska priča govori o nesrećnim događajima koji su zadesili Jugoslaviju 1999. godine, ali kroz oči jednog ekstremnog patriote, igra ga Lazar Ristovski, koji sasvim sam pokušava da reši rat. Možda bi se moglo reći da se radi o crnohumornoj priči. Ipak, ona u velikoj meri oslikava karakter čoveka ovog podneblja kad se nađe u bezizlaznoj situaciji, a život traži rešenja i izlaze na ovaj ili onaj način. Kod našeg junaka to je bilo - na njegov način.
 
cu0ttdosfdi.png
 
G84XbqD.gif
 
KuPpd7Y.jpg
 
Oets6ur.gif
 
Pad u raj (2004) TVRip.x264.mkv 
 
SFYUbuP.jpg
 
Hidden Content
You'll be able to see the hidden content once you thank this post.

Molbe za moje linkove, šaljite na PP.

 

Zabranjeno je kopiranje mojih linkova,reupload i postavljanje na druge forume!


Thanked by 68 Members:
Ivan2010 , Dijana1974 , goransokolovic.fr , dr_obad , dgema82 , cvele88 , mciplic , Nikolatb , DACK , chefko , kockari , nocaronion , kanki , chadjox , milicfilip , granamax , zlatko89 , gigo2 , cigoyner , sparrow , kresomirovic , Schweik , bmfinger , bassdrv , mean machine , 011gogo , jovicai , deanica2008 , philip98 , radonja86 , Urosito , dj1van , danijeladanijel , nikolanowi17 , marbar306 , BrackoNe , scofield123 , katevojtković , tatam , ZeljkoBona , DenisBan , draganadragana2010 , prince1969 , amres , nervozni postar , dadoo980 , krivosic1804 , Seki44 , vladan1977 , G-Zeko , dis2004 , zaostrog , Cocco Bill , croteam55 , mikula11 , Mythos_97 , prosphero , ivcxo , franco64 , brankomajsto , Zelenac1 , brankomeda , opetopet , woodooye , sasa983 , zagortnt , tole321 , plavi59

#2
nikolakralj100

nikolakralj100

    Advanced Member

  • Members
  • PipPipPip
  • 346 posts
  • 20571 thanks

DVDr

 

nM41gXJ.jpg

 

YvadOti.jpg

 

Hidden Content
You'll be able to see the hidden content once you thank this post.


Thanked by 31 Members:
303808909 , Tijana1803 , DACK , Flippy , rafael13 , granamax , zlatko89 , liquid , sparrow , Zelenac1 , bassdrv , mean machine , kresomirovic , philip98 , Urosito , dj1van , danijeladanijel , nikolanowi17 , retype12345 , scofield123 , Mad2Max , katevojtković , prince1969 , nervozni postar , brankoz13 , mbojic , vladan1977 , dis2004 , grof65 , caki1980 , prosphero

#3
Wolf 13

Wolf 13

    Advanced Member

  • Members
  • PipPipPip
  • 426 posts
  • 33531 thanks
Pad u raj (2004) DVDrip AC3 5.1 x264 by Wolf
(MKV)
 
hI2p5na.jpg
 

Please Login or Register to see this Hidden Content

 

General
Unique ID                   : 226999567591450495388725594165134428613 (0xAAC686C5FFE06E07B7C1A63A04DF09C5)
Complete name               : Pad u raj (2004) DVDrip AC3 5.1 x264 by Wolf.mkv
Format                      : Matroska
Format version              : Version 4
File size                   : 1.10 GiB
Duration                    : 1 h 29 min
Overall bit rate            : 1 758 kb/s
Encoded date                : UTC 2018-12-28 17:48:10 / UTC 2018-12-28T14:49:37Z
Writing application         : mkvmerge v29.0.0 ('Like It Or Not') 64-bit
Writing library             : libebml v1.3.6 + libmatroska v1.4.9 / Lavf57.7.2
 
Video
ID                          : 1
Format                      : AVC
Format/Info                 : Advanced Video Codec
Format profile              : [email protected]
Format settings             : CABAC / 8 Ref Frames
Format settings, CABAC      : Yes
Format settings, ReFrames   : 8 frames
Codec ID                    : V_MPEG4/ISO/AVC
Duration                    : 1 h 29 min
Bit rate                    : 1 500 kb/s
Width                       : 714 pixels
Height                      : 546 pixels
Display aspect ratio        : 1.85:1
Original display aspect rat : 1.85:1
Frame rate mode             : Constant
Frame rate                  : 25.000 FPS
Color space                 : YUV
Chroma subsampling          : 4:2:0
Bit depth                   : 8 bits
Scan type                   : Progressive
Bits/(Pixel*Frame)          : 0.154
Stream size                 : 939 MiB (83%)
Title                       : Pad u raj (2004)
Writing library             : x264 core 155 r2901 7d0ff22
Encoding settings           : cabac=1 / ref=8 / deblock=1:-1:-1 / analyse=0x3:0x133 / me=umh / subme=9 / psy=1 / psy_rd=1.00:0.15 / mixed_ref=1 / me_range=16 / chroma_me=1 / trellis=2 / 8x8dct=1 / cqm=0 / deadzone=21,11 / fast_pskip=1 / chroma_qp_offset=-3 / threads=6 / lookahead_threads=1 / sliced_threads=0 / nr=0 / decimate=1 / interlaced=0 / bluray_compat=0 / constrained_intra=0 / bframes=3 / b_pyramid=2 / b_adapt=2 / b_bias=0 / direct=3 / weightb=1 / open_gop=0 / weightp=2 / keyint=250 / keyint_min=25 / scenecut=40 / intra_refresh=0 / rc_lookahead=60 / rc=2pass / mbtree=1 / bitrate=1500 / ratetol=1.0 / qcomp=0.60 / qpmin=0 / qpmax=69 / qpstep=4 / cplxblur=20.0 / qblur=0.5 / vbv_maxrate=300000 / vbv_bufsize=300000 / nal_hrd=none / filler=0 / ip_ratio=1.40 / aq=1:1.00
Language                    : Serbian
Default                     : Yes
Forced                      : No
Color range                 : Limited
Color primaries             : BT.601 PAL
Transfer characteristics    : BT.709
Matrix coefficients         : BT.601
Statistics Tags Issue       : mkvmerge v29.0.0 ('Like It Or Not') 64-bit 2018-12-28 17:48:10 / mkvmerge v29.0.0 ('Like It Or Not') 64-bit 2018-12-28 17:48:10 / UTC 2018-12-28T14:49:37Z
FromStats_BitRate           : 1499940
FromStats_Duration          : 01:29:33.000000000
FromStats_FrameCount        : 134325
FromStats_StreamSize        : 1007397624
 
Audio
ID                          : 2
Format                      : AC-3
Format/Info                 : Audio Coding 3
Commercial name             : Dolby Digital
Codec ID                    : A_AC3
Duration                    : 1 h 29 min
Bit rate mode               : Constant
Bit rate                    : 256 kb/s
Channel(s)                  : 6 channels
Channel layout              : L R C LFE Ls Rs
Sampling rate               : 48.0 kHz
Frame rate                  : 31.250 FPS (1536 SPF)
Bit depth                   : 16 bits
Compression mode            : Lossy
Stream size                 : 164 MiB (15%)
Title                       : Pad u raj (2004)
Language                    : Serbian
Service kind                : Complete Main
Default                     : Yes
Forced                      : No
Statistics Tags Issue       : mkvmerge v29.0.0 ('Like It Or Not') 64-bit 2018-12-28 17:48:10 / mkvmerge v29.0.0 ('Like It Or Not') 64-bit 2018-12-28 17:48:10 / UTC 2018-12-28T14:49:37Z
FromStats_BitRate           : 256000
FromStats_Duration          : 01:29:32.992000000
FromStats_FrameCount        : 167906
FromStats_StreamSize        : 171935744
 
Text
ID                          : 3
Format                      : UTF-8
Codec ID                    : S_TEXT/UTF8
Codec ID/Info               : UTF-8 Plain Text
Title                       : PAD  U  RAJ
Language                    : Serbian
Default                     : Yes
Forced                      : No
Statistics Tags Issue       : mkvmerge v29.0.0 ('Like It Or Not') 64-bit 2018-12-28 17:48:10 / mkvmerge v29.0.0 ('Like It Or Not') 64-bit 2018-12-28 17:48:10 / UTC 2018-12-28T14:49:37Z
FromStats_BitRate           : 21
FromStats_Duration          : 01:25:52.461000000
FromStats_FrameCount        : 361
FromStats_StreamSize        : 13639
 
epYscVA.png
Hidden Content
You'll be able to see the hidden content once you thank this post.
 
MJVnqBE.png
13A4z91.jpg


Thanked by 29 Members:
jadjonbv , 303808909 , ajdinovski , Tijana1803 , alex.kiwi , nikolatb2 , DACK , chefko , macessatt , Flippy , rafael13 , fritz200300 , danijeladanijel , granamax , zlatko89 , nesom , Homss , amiga500emulator1 , icaleptir , dadodadic , danep , zoran48 , marco1978 , aca72 , Miki_Kiki_Riki , bassdrv , mean machine , kresomirovic , Jokso



0 user(s) are reading this topic

0 members, 0 guests, 0 anonymous users