Jump to content

Dobrodošli na Balkandownload.org
Tražite domaće knjige, exyu magazine, sinhronizirane crtane filmove, PC i ostale igre, strane i domaće filmove, dokumentarce, stranu i domaću muziku, itd. ? Ne morate tražiti dalje jer sve ćete to naći kod nas, uredno postavljeno i spremno za download. Osim toga registracijom možete sudjelovati u raznim postojećim temama na forumu, otvarati nove teme, sudjelovati u chatu i još mnogo toga. Ako već imaš otvoren račun, logiraj se ovde ,a ako želiš saznati zašto smo najbolji otvori novi račun i uverite se sami :)
Photo

Sisanje (2010)


2 replies to this topic

#1
nikolakralj100

nikolakralj100

    Advanced Member

  • Members
  • PipPipPip
  • 346 posts
  • 20571 thanks

DVDr

 

CwRv9hJ.jpg

 

Šišanje donosi priču o beogradskom srednjoškolcu Novici (Nikola Rakočević), prvaku u matematici. Novica je uvučen u svijet skinheda, opčinjen je njihovim karizmatičnim vođom Reljom (Viktor Savić). Pridruživanjem bandi skinheda Novici prije svega znači uklapanje u školsko društvo, budući da ga većina prijatelja smatra knjiškim moljcem i štreberom. Uskoro će biti zatrovan rasističkim stavovima te grupe i nasiljem. Budući da je dobar u gotovo svakom poslu kojega se prihvati, Novica se ubrzo počinje penjati na ljestvici važnosti među skinhedima. Postaje jedan od najvatrenijih navijača nogometnog kluba "Radnik". Šolakova i Kojo igraju policijske inspektore koji pokušavaju da obuzdaju tu grupu neonacista.

 

BpIFZDb.jpg

 

Hidden Content
You'll be able to see the hidden content once you thank this post.

 



Thanked by 106 Members:

#2
Wolf 13

Wolf 13

    Advanced Member

  • Members
  • PipPipPip
  • 426 posts
  • 33531 thanks
Sisanje (2010) 720p BRrip DD5.1 x264 by Wolf
(MKV)
 
YZdHcAb.jpg
 

Please Login or Register to see this Hidden Content

 

General
Unique ID                   : 186073802693846561856337932262174524978 (0x8BFC82C6E54F35CAFE43886F460E8632)
Complete name               : Sisanje (2010) 720p BRrip DD5.1 x264 by Wolf.mkv
Format                      : Matroska
Format version              : Version 4
File size                   : 1.26 GiB
Duration                    : 1 h 37 min
Overall bit rate            : 1 854 kb/s
Encoded date                : UTC 2019-05-15 21:30:34
Writing application         : mkvmerge v33.1.0 ('Primrose') 64-bit
Writing library             : libebml v1.3.7 + libmatroska v1.5.0 / Lavf58.20.100
 
Video
ID                          : 1
Format                      : AVC
Format/Info                 : Advanced Video Codec
Format profile              : [email protected]
Format settings             : CABAC / 16 Ref Frames
Format settings, CABAC      : Yes
Format settings, ReFrames   : 16 frames
Codec ID                    : V_MPEG4/ISO/AVC
Duration                    : 1 h 37 min
Bit rate                    : 1 600 kb/s
Width                       : 1 280 pixels
Height                      : 720 pixels
Display aspect ratio        : 16:9
Frame rate mode             : Constant
Frame rate                  : 25.000 FPS
Color space                 : YUV
Chroma subsampling          : 4:2:0
Bit depth                   : 8 bits
Scan type                   : Progressive
Bits/(Pixel*Frame)          : 0.069
Stream size                 : 1.09 GiB (86%)
Title                       : Sisanje (2010)
Writing library             : x264 core 157 r2935 545de2f
Encoding settings           : cabac=1 / ref=16 / deblock=1:-1:-1 / analyse=0x3:0x133 / me=umh / subme=10 / psy=1 / psy_rd=1.00:0.15 / mixed_ref=1 / me_range=24 / chroma_me=1 / trellis=2 / 8x8dct=1 / cqm=0 / deadzone=21,11 / fast_pskip=1 / chroma_qp_offset=-3 / threads=6 / lookahead_threads=1 / sliced_threads=0 / nr=0 / decimate=1 / interlaced=0 / bluray_compat=0 / constrained_intra=0 / bframes=8 / b_pyramid=2 / b_adapt=2 / b_bias=0 / direct=3 / weightb=1 / open_gop=0 / weightp=2 / keyint=250 / keyint_min=25 / scenecut=40 / intra_refresh=0 / rc_lookahead=60 / rc=2pass / mbtree=1 / bitrate=1600 / ratetol=1.0 / qcomp=0.60 / qpmin=0 / qpmax=69 / qpstep=4 / cplxblur=20.0 / qblur=0.5 / vbv_maxrate=300000 / vbv_bufsize=300000 / nal_hrd=none / filler=0 / ip_ratio=1.40 / aq=1:1.00
Language                    : Serbian
Default                     : Yes
Forced                      : No
Color range                 : Limited
Color primaries             : BT.709
Transfer characteristics    : BT.709
Matrix coefficients         : BT.709
 
Audio
ID                          : 2
Format                      : E-AC-3
Format/Info                 : Enhanced AC-3
Commercial name             : Dolby Digital Plus
Codec ID                    : A_EAC3
Duration                    : 1 h 37 min
Bit rate mode               : Constant
Bit rate                    : 256 kb/s
Channel(s)                  : 6 channels
Channel layout              : L R C LFE Ls Rs
Sampling rate               : 48.0 kHz
Frame rate                  : 31.250 FPS (1536 SPF)
Compression mode            : Lossy
Delay relative to video     : -5 ms
Stream size                 : 179 MiB (14%)
Title                       : Sisanje (2010)
Language                    : Serbian
Service kind                : Complete Main
Default                     : Yes
Forced                      : No
 
epYscVA.png
Hidden Content
You'll be able to see the hidden content once you thank this post.
zbNKcak.jpg
Hidden Content
You'll be able to see the hidden content once you thank this post.
 
QlcZMJh.png
k0xayZu.jpg

Edited by Wolf 13, 16 May 2019 - 16:06.


Thanked by 81 Members:

#3
kostolomac

kostolomac

    Advanced Member

  • Members
  • PipPipPip
  • 148 posts
  • 12690 thanks

Sisanje.2010.720p.BluRay.x264-NEO

 

Hidden Content
You'll be able to see the hidden content once you thank this post.



Thanked by 23 Members:
eCORE , krlle , grof65 , 710pa , Yuppicide , burgo , icaleptir , KIXX , denimiko1 , mirko_cilicax , arrri , blauer , albi , retar , BobbyPeruAd , goransokolovic.fr , beograd1960' , senilni , PEKIPEKICA , Urosito , MaliIgicGregor , fffunkymannn , danep



0 user(s) are reading this topic

0 members, 0 guests, 0 anonymous users