Jump to content

Dobrodošli na Balkandownload.org
Tražite domaće knjige, exyu magazine, sinhronizirane crtane filmove, PC i ostale igre, strane i domaće filmove, dokumentarce, stranu i domaću muziku, itd. ? Ne morate tražiti dalje jer sve ćete to naći kod nas, uredno postavljeno i spremno za download. Osim toga registracijom možete sudjelovati u raznim postojećim temama na forumu, otvarati nove teme, sudjelovati u chatu i još mnogo toga. Ako već imaš otvoren račun, logiraj se ovde ,a ako želiš saznati zašto smo najbolji otvori novi račun i uverite se sami :)
Photo

Srpski film/A Serbian Film (2010)


2 replies to this topic

#1
Biotloneta

Biotloneta

    Bronze Member

  • Moderator
  • PipPipPipPip
  • 1,403 posts
  • 64537 thanks
  • LocationRobija
                 Srpski film/A Serbian Film (2010)
 
                                                              e68e82e0b5e46553736a26086e87078a.jpg
 

Please Login or Register to see this Hidden Content

 
Opis: Miloš, bivša porno zvezda, vodi normalan život sa svojom ženom Marijom i petogodišnjim sinom Petrom. U tranzicionoj Srbiji, u burnim vremenima, pokušava da sastavi kraj sa krajem. Iznenadni poziv od njegove bivše partnerke Lejle, i dalje aktivne u porno industriji, promenice sve. Svesna Miloševih finansijskih problema, Lejla upoznaje Miloša sa Vukmirom, sumnjivim, misterioznim, ludim, ali i politicki mocnim porno producentom, koji Milošu iznosi vrlo primamljiv predlog.
 
Uloge:
Srdan Todorovic Miloš
Sergej Trifunovic Vukmir
Katarina Žutic Lejla
Jelena Gavrilovic Marija
Slobodan Beštic Marko
Lena Bogdanovic Doktorka
Ana Sakic Jecina majka
Luka Mijatovic Stefan
Miodrag Krcmarik Raša
Nenad Herakovic Cuvar 1
Carni Deric Cuvar 2
Andela Nenadovic Jeca
Lidija Pletl Jecina baka
Marina Savic Prostitutka
Nataša Miljuš Porodilja
Goran Macura Mangup
Mila Miloševic Devojka u bazenu
Miroslav Sencanski Reditelj kraja filma
Ivan Cvetic Telohranitelj 1
Miloš Vrbica Telohranitelj 2
Marijeta Goc Devojka u porno radionici 1
Biljana Žurnic Devojka u porno radionici 2
Jelena Mihic Devojka u porno radionici 3
Irena Korac Kasirka
Sanja Spasojevic Udata devojka
Aleksandar Banjac Oženjen momak
 
Režija: Srdan Spasojevic
 
Žanr: Horor
 
gbROBnv.jpg

Hidden Content
You'll be able to see the hidden content once you thank this post.

  tumblr_o89ik1YZEl1ssbvp5o1_500.gif

 

Za repload mrtvih linkova (domaćih filmova) ili želje za postavljanjem nekog filma kog ne možete da pronađete, obratite mi se putem privatne poruke.


Thanked by 116 Members:

#2
Wolf 13

Wolf 13

    Advanced Member

  • Members
  • PipPipPip
  • 426 posts
  • 33407 thanks
Srpski film (2010) 1080p BRrip E-AC3 x264 by Wolf
(MKV)
 
QMbgBWU.jpg

 

General
Unique ID                   : 75460566835279716501344079060440830934 (0x38C52D30FEA55C647A2ECE4B096DD3D6)
Complete name               : Srpski film (2010) 1080p BRrip E-AC3 x264 by Wolf.mkv
Format                      : Matroska
Format version              : Version 4 / Version 2
File size                   : 1.27 GiB
Duration                    : 1 h 43 min
Overall bit rate            : 1 756 kb/s
Encoded date                : UTC 2018-11-11 12:09:56 / UTC 2017-10-11T08:12:27Z
Writing application         : mkvmerge v28.2.0 ('The Awakening') 64-bit
Writing library             : libebml v1.3.6 + libmatroska v1.4.9 / Lavf57.7.2
 
Video
ID                          : 1
Format                      : AVC
Format/Info                 : Advanced Video Codec
Format profile              : [email protected]
Format settings             : CABAC / 4 Ref Frames
Format settings, CABAC      : Yes
Format settings, ReFrames   : 4 frames
Codec ID                    : V_MPEG4/ISO/AVC
Duration                    : 1 h 43 min
Bit rate                    : 1 500 kb/s
Width                       : 1 920 pixels
Height                      : 800 pixels
Display aspect ratio        : 2.40:1
Frame rate mode             : Constant
Frame rate                  : 23.976 (24000/1001) FPS
Color space                 : YUV
Chroma subsampling          : 4:2:0
Bit depth                   : 8 bits
Scan type                   : Progressive
Bits/(Pixel*Frame)          : 0.041
Stream size                 : 1.06 GiB (83%)
Title                       : Srpski film (2010)
Writing library             : x264 core 148 r2708 86b7198
Encoding settings           : cabac=1 / ref=2 / deblock=1:0:0 / analyse=0x3:0x113 / me=hex / subme=4 / psy=1 / psy_rd=1.00:0.00 / mixed_ref=0 / me_range=16 / chroma_me=1 / trellis=1 / 8x8dct=1 / cqm=0 / deadzone=21,11 / fast_pskip=1 / chroma_qp_offset=0 / threads=3 / lookahead_threads=1 / sliced_threads=0 / nr=0 / decimate=1 / interlaced=0 / bluray_compat=0 / constrained_intra=0 / bframes=3 / b_pyramid=2 / b_adapt=1 / b_bias=0 / direct=1 / weightb=1 / open_gop=0 / weightp=1 / keyint=240 / keyint_min=24 / scenecut=40 / intra_refresh=0 / rc_lookahead=20 / rc=2pass / mbtree=1 / bitrate=1500 / ratetol=1.0 / qcomp=0.60 / qpmin=0 / qpmax=69 / qpstep=4 / cplxblur=20.0 / qblur=0.5 / vbv_maxrate=300000 / vbv_bufsize=300000 / nal_hrd=none / filler=0 / ip_ratio=1.40 / aq=1:1.00
Language                    : Serbian
Default                     : Yes
Forced                      : No
Color range                 : Limited
Color primaries             : BT.709
Transfer characteristics    : BT.709
Matrix coefficients         : BT.709
Statistics Tags Issue       : mkvmerge v28.2.0 ('The Awakening') 64-bit 2018-11-11 12:09:56 / mkvmerge v28.2.0 ('The Awakening') 64-bit 2018-11-11 12:09:56 / UTC 2017-10-11T08:12:27Z
FromStats_BitRate           : 1498260
FromStats_Duration          : 01:43:46.179000000
FromStats_FrameCount        : 149279
FromStats_StreamSize        : 1166055031
 
Audio
ID                          : 3
Format                      : E-AC-3
Format/Info                 : Enhanced Audio Coding 3
Codec ID                    : A_EAC3
Duration                    : 1 h 43 min
Bit rate mode               : Constant
Bit rate                    : 256 kb/s
Channel(s)                  : 6 channels
Channel positions           : Front: L C R, Side: L R, LFE
Sampling rate               : 48.0 kHz
Frame rate                  : 187.500 FPS (256 SPF)
Compression mode            : Lossy
Delay relative to video     : -21 ms
Stream size                 : 190 MiB (15%)
Title                       : Srpski film (2010)
Language                    : Serbian
Service kind                : Complete Main
Default                     : Yes
Forced                      : No
Statistics Tags Issue       : mkvmerge v28.2.0 ('The Awakening') 64-bit 2018-11-11 12:09:56 / mkvmerge v28.2.0 ('The Awakening') 64-bit 2018-11-11 12:09:56 / UTC 2017-10-11T08:12:27Z
FromStats_BitRate           : 256000
FromStats_Duration          : 01:43:47.904000000
FromStats_FrameCount        : 194622
FromStats_StreamSize        : 199292928
 
Text
ID                          : 2
Format                      : UTF-8
Codec ID                    : S_TEXT/UTF8
Codec ID/Info               : UTF-8 Plain Text
Title                       : A SERBIAN FILM
Language                    : English
Default                     : Yes
Forced                      : No
Statistics Tags Issue       : mkvmerge v28.2.0 ('The Awakening') 64-bit 2018-11-11 12:09:56 / mkvmerge v28.2.0 ('The Awakening') 64-bit 2018-11-11 12:09:56 / UTC 2017-10-11T08:12:27Z
FromStats_BitRate           : 26
FromStats_Duration          : 01:39:31.502000000
FromStats_FrameCount        : 550
FromStats_StreamSize        : 19715

 

 

Please Login or Register to see this Hidden Content

 
epYscVA.png
Hidden Content
You'll be able to see the hidden content once you thank this post.
 
Df5fxyG.jpg
5HmUWim.jpg

Edited by Wolf 13, 11 November 2018 - 15:41.


Thanked by 112 Members:

#3
kostolomac

kostolomac

    Advanced Member

  • Members
  • PipPipPip
  • 148 posts
  • 12633 thanks

Srpski.Film.2010.UNCUT.720p.BluRay.x264-NEO

 

Hidden Content
You'll be able to see the hidden content once you thank this post.



Thanked by 42 Members:
DJ Zlayo , kockari , kiky , catlea80 , Krama1 , koshava , snupix , urbananamen , burgo , icaleptir , radionica1 , Sanjin13 , KIXX , AleksLapovo , denimiko1 , pelinkola , Oprosty , Magic 32 , blauer , Jokeratomic , merimac , kgrn , internetcaffe , khftebvio , sdlder , Jokso , stimpson2 , dzimislav leone , darkman3891 , justmixy83 , goransokolovic.fr , mpascal , fritz200300 , beograd1960' , senilni , zok , MaliIgicGregor , mandrilo , danep , liquid , Urosito , djidjabajt74



0 user(s) are reading this topic

0 members, 0 guests, 0 anonymous users