Jump to content

Dobrodošli na Balkandownload.org
Tražite domaće knjige, exyu magazine, sinhronizirane crtane filmove, PC i ostale igre, strane i domaće filmove, dokumentarce, stranu i domaću muziku, itd. ? Ne morate tražiti dalje jer sve ćete to naći kod nas, uredno postavljeno i spremno za download. Osim toga registracijom možete sudjelovati u raznim postojećim temama na forumu, otvarati nove teme, sudjelovati u chatu i još mnogo toga. Ako već imaš otvoren račun, logiraj se ovde ,a ako želiš saznati zašto smo najbolji otvori novi račun i uverite se sami :)
Photo

Ubistvo s Predumišljajem (1995)


3 replies to this topic

#1
Zoran_

Zoran_

    Gold Member

  • VIP
  • PipPipPipPipPipPip
  • 5,990 posts
  • 149768 thanks

Ubistvo s predumisljajem (1995)


Ubistvospredumisljajem1995.png

imdb6.jpg
 

Please Login or Register to see this Hidden Content

Dve ljubavne price, koje su isprepletene iako se odvijaju u dve epohe medjusobno udaljene pola veka. Bulika, savremena beogradska devojka i Bogdan, ratnik iz Moslavine, u 1992.godini; Bulikina baka, rafinirana beogradska lepotica iz visokog drustva i Krsman, seljak sa Kopaonika i oficir OZNE, u 1944.godini - u dva razlicita rata susrecu se sa sudbinskom tragikom kao neizbeznom istorijskom odrednicom balkanskog prostora ...


Molbe za moje linkove, šaljite na PP.

 

Zabranjeno je kopiranje mojih linkova,reupload i postavljanje na druge forume!


Thanked by 128 Members:

#2
Wolf 13

Wolf 13

    Advanced Member

  • Members
  • PipPipPip
  • 426 posts
  • 33607 thanks
Ubistvo s predumisljajem (1995) DVDrip E-AC3 x264 by Wolf
(MKV)
 
KhJnLIU.jpg
 

Please Login or Register to see this Hidden Content

 

General
Unique ID                   : 139755632335409654904287222342101858070 (0x6923F4AA243BE148AAF2F2EE6F697716)
Complete name               : Ubistvo s predumisljajem (1995) DVDrip E-AC3 x264 by Wolf.mkv
Format                      : Matroska
Format version              : Version 4 / Version 2
File size                   : 1.17 GiB
Duration                    : 1 h 35 min
Overall bit rate            : 1 755 kb/s
Encoded date                : UTC 2018-10-16 15:22:42 / UTC 2018-10-16T13:22:21Z
Writing application         : mkvmerge v27.0.0 ('Metropolis') 64-bit
Writing library             : libebml v1.3.6 + libmatroska v1.4.9 / Lavf57.7.2
 
Video
ID                          : 1
Format                      : AVC
Format/Info                 : Advanced Video Codec
Format profile              : High [email protected]
Format settings             : CABAC / 5 Ref Frames
Format settings, CABAC      : Yes
Format settings, ReFrames   : 5 frames
Codec ID                    : V_MPEG4/ISO/AVC
Duration                    : 1 h 35 min
Bit rate                    : 1 500 kb/s
Width                       : 684 pixels
Height                      : 452 pixels
Display aspect ratio        : 16:10
Original display aspect rat : 16:10
Frame rate mode             : Constant
Frame rate                  : 25.000 FPS
Color space                 : YUV
Chroma subsampling          : 4:2:0
Bit depth                   : 10 bits
Scan type                   : Progressive
Bits/(Pixel*Frame)          : 0.194
Stream size                 : 997 MiB (83%)
Title                       : Ubistvo s predumisljajem (1995)
Writing library             : x264 core 155 r2901 7d0ff22
Encoding settings           : cabac=1 / ref=5 / deblock=1:-1:-1 / analyse=0x3:0x113 / me=hex / subme=8 / psy=1 / psy_rd=1.00:0.15 / mixed_ref=1 / me_range=16 / chroma_me=1 / trellis=2 / 8x8dct=1 / cqm=0 / deadzone=21,11 / fast_pskip=1 / chroma_qp_offset=-3 / threads=6 / lookahead_threads=1 / sliced_threads=0 / nr=0 / decimate=1 / interlaced=0 / bluray_compat=0 / constrained_intra=0 / bframes=3 / b_pyramid=2 / b_adapt=1 / b_bias=0 / direct=3 / weightb=1 / open_gop=0 / weightp=2 / keyint=250 / keyint_min=25 / scenecut=40 / intra_refresh=0 / rc_lookahead=50 / rc=2pass / mbtree=1 / bitrate=1500 / ratetol=1.0 / qcomp=0.60 / qpmin=0 / qpmax=81 / qpstep=4 / cplxblur=20.0 / qblur=0.5 / vbv_maxrate=150000 / vbv_bufsize=187500 / nal_hrd=none / filler=0 / ip_ratio=1.40 / aq=1:1.00
Language                    : Serbian
Default                     : Yes
Forced                      : No
Color range                 : Limited
Color primaries             : BT.601 PAL
Transfer characteristics    : BT.709
Matrix coefficients         : BT.601
Statistics Tags Issue       : mkvmerge v27.0.0 ('Metropolis') 64-bit 2018-10-16 15:22:42 / mkvmerge v27.0.0 ('Metropolis') 64-bit 2018-10-16 15:22:42 / UTC 2018-10-16T13:22:21Z
FromStats_BitRate           : 1499731
FromStats_Duration          : 01:35:04.000000000
FromStats_FrameCount        : 142600
FromStats_StreamSize        : 1069308643
 
Audio
ID                          : 2
Format                      : E-AC-3
Format/Info                 : Enhanced Audio Coding 3
Codec ID                    : A_EAC3
Duration                    : 1 h 35 min
Bit rate mode               : Constant
Bit rate                    : 256 kb/s
Channel(s)                  : 6 channels
Channel positions           : Front: L C R, Side: L R, LFE
Sampling rate               : 48.0 kHz
Frame rate                  : 187.500 FPS (256 SPF)
Compression mode            : Lossy
Delay relative to video     : -5 ms
Stream size                 : 174 MiB (15%)
Title                       : Ubistvo s predumisljajem (1995)
Language                    : Serbian
Service kind                : Complete Main
Default                     : Yes
Forced                      : No
Statistics Tags Issue       : mkvmerge v27.0.0 ('Metropolis') 64-bit 2018-10-16 15:22:42 / mkvmerge v27.0.0 ('Metropolis') 64-bit 2018-10-16 15:22:42 / UTC 2018-10-16T13:22:21Z
FromStats_BitRate           : 256000
FromStats_Duration          : 01:35:13.376000000
FromStats_FrameCount        : 178543
FromStats_StreamSize        : 182828032
 
epYscVA.png
Hidden Content
You'll be able to see the hidden content once you thank this post.
 
89jlgAp.png
V0mKQTu.jpg

Edited by Wolf 13, 19 October 2018 - 13:33.


Thanked by 118 Members:

#3
dakle

dakle

    Advanced Member

  • Banovan
  • PipPipPip
  • 340 posts
  • 39924 thanks
  • LocationBALKAN

Ubistvo s Predumišljajem (1995) - tv- rip

 

MV5BODJjMDI1MmItMDhiNC00MTgxLWFlN2EtMzhh

Hidden Content
You'll be able to see the hidden content once you thank this post.

 

Jelena Panić zvana Bulika (Branka Katić) mlada je žena koja u Beogradu ranih devedesetih, usred rata Srbije i Hrvatske, uređuje knjigu temeljenu na dnevničkim zapisima njene bake, s kraja Drugog svjetskog rata. 

U radu joj pomaže Bogdan (Nebojša Glogovac), mladi vojnik koji se oporavlja od rana zadobivenih na ratištu. Kroz dnevnik njih dvoje saznaju kako je Jelenina baka pokušala iz zatvora osloboditi svoga očuha, četničkog simpatizera, istovremeno se privikavajući na nove poslijeratne životne okolnosti. Dojmljiva drama redatelja Gorčina Stojanovića pokazuje nam na koje se sve načine mogu ispreplitati ljubav i rat, paralelnim nam pričama smještenim u različita vremenska razdoblja ukazujući na brojne sličnosti dva naizgled udaljena rata. Temeljen na odličnoj knjizi pokojnog pisca Slobodana Selenića, "Ubojstvo s predumišljajem" uspijeva na ekran prenijeti karakteristični melodramatski ton romana, što je umnogome zasluga izvrsne glumačke ekipe na čelu s Brankom Katić i Nebojšom Glogovcem. U manjim se ulogama pojavljuju legende jugoslavenskog filma Ljubiša Samardžić i Danilo Bata Stojković.,

 

Režiser: Gorcin Stojanovic

Scenarista:Slobodan Selenic
Žanr:dramski, romantični
Trajanje:94 min
Glumci:Branka Katić, Nebojša Glogovac, Ana Sofrenovic, Dragan Mićanović, Sergej Trifunovic, Nada Blam, Svetozar Cvetković, Vladan Dujovic, Predrag Ejdus, Rade Marković, Dejan Matic

 

Ezsunk8.jpg

Download:

Hidden Content
You'll be able to see the hidden content once you thank this post.


:excl: Za obnovu isteklih/mrtvih linkova, pišite mi u PM. :excl:

:yes:- BALKANDOWNLOAD -Balkan no.1 Forum - :yes:


Thanked by 119 Members:

#4
Zoran_

Zoran_

    Gold Member

  • VIP
  • PipPipPipPipPipPip
  • 5,990 posts
  • 149768 thanks
Ubistvo s predumisljajem (1995)
 
 
NRHhak7.png
 
Su6Ksi6.jpg
 

Please Login or Register to see this Hidden Content

 
Dve ljubavne price, koje su isprepletene iako se odvijaju u dve epohe medjusobno udaljene pola veka. Bulika, savremena beogradska devojka i Bogdan, ratnik iz Moslavine, u 1992.godini; Bulikina baka, rafinirana beogradska lepotica iz visokog drustva i Krsman, seljak sa Kopaonika i oficir OZNE, u 1944.godini - u dva razlicita rata susrecu se sa sudbinskom tragikom kao neizbeznom istorijskom odrednicom balkanskog prostora ...
 
m0h27q28wuu.png
 
0XYZ3eL.gif
 
dZqx7S4.jpg
 
Oets6ur.gif
 
Ubistvo s predumisljajem (1995) DVDRip.x264.mkv
 
SFYUbuP.jpg
 
Hidden Content
You'll be able to see the hidden content once you thank this post.

Molbe za moje linkove, šaljite na PP.

 

Zabranjeno je kopiranje mojih linkova,reupload i postavljanje na druge forume!


Thanked by 64 Members:
kokiska , scofield123 , jacimz , filmbuff , Jorgos , Boxksi , vlast69 , goransokolovic.fr , 303808909 , Stefansrb93 , Chodica , lestrejndz , kojic , cowboy6812 , rikee , Ilke91 , Dijana1974 , rajka.bogda , zvrcko , imarkovic , kormi17 , Ilijaax , AsheFawkes , dragank1970 , satyr83 , runjaa , Bontonko , skrbiczoran , vanzemaljac92 , kocasrbin333 , vajtaun , sloznabraca , xnoz25 , johnrangel25 , slavoljubsmeci , rbarron , Homss , qwerty19 , nocaronion , ptomic , chadjox , Milfir , ModestiKG , satserb , balkanmmb , kockari , stefs304 , amirn , aca72 , kresomirovic , salep059 , 1zec , Gorolomac , Jokso , Biotloneta , iceman_79 , MP22 , salgija , cigoyner , Franci , zoran48 , Korto74 , dzogani , Miki_Kiki_Riki



0 user(s) are reading this topic

0 members, 0 guests, 0 anonymous users