Jump to content

Dobrodošli na Balkandownload.org
Tražite domaće knjige, exyu magazine, sinhronizirane crtane filmove, PC i ostale igre, strane i domaće filmove, dokumentarce, stranu i domaću muziku, itd. ? Ne morate tražiti dalje jer sve ćete to naći kod nas, uredno postavljeno i spremno za download. Osim toga registracijom možete sudjelovati u raznim postojećim temama na forumu, otvarati nove teme, sudjelovati u chatu i još mnogo toga. Ako već imaš otvoren račun, logiraj se ovde ,a ako želiš saznati zašto smo najbolji otvori novi račun i uverite se sami :)
Photo

Medeni mjesec (1983)

1983 jugoslavija

No replies to this topic

#1
LEMONZOO

LEMONZOO

    Bronze Member

  • VIP
  • PipPipPipPip
  • 1,084 posts
  • 18609 thanks
  • LocationGavran Mahala

Medeni mjesec (1983)

Medeni_mjesec_1983.jpg

Please Login or Register to see this Hidden Content


Život Marka Bilogore, 28-godišnjeg blagajnika zadružne prodavaonice u slavonskom selu Grabiku, tekao bi mirno da se u njegov život nije umiješao Mile Razjap, zagrebački kriminalac, koji zavodi Grozdanu, veliku mladićevu ljubav. Razočaran, Marko odlazi iz Grabika u Zagreb, gdje ga 'posvaja' posesivna privatna obrtnica Vanda i uvodi u svijet raskoši, ali i kriminala. Pošto se Vanda pred prijateljicama hvali da ima 'rasnog pastuha', one ga, u njezinu odsustvu, odluče iskušati. Ona mu to neće oprostiti. Istodobno, policijski inspektor Rajko odmotava klupko svodništva, krijumčarenja droge i korupcije. Marko bježi natrag u Grabik…


Console
General
Complete name                            : Medeni mjesec (1983).avi
Format                                   : AVI
Format/Info                              : Audio Video Interleave
File size                                : 798 MiB
Duration                                 : 1h 52mn
Overall bit rate                         : 991 Kbps
Writing application                      : VirtualDubMod 1.5.10.2 (build 2542/release)
Writing library                          : VirtualDubMod build 2542/release

Video
ID                                       : 0
Format                                   : MPEG-4 Visual
Format profile                           : Advanced [email protected]
Format settings, BVOP                    : 1
Format settings, QPel                    : No
Format settings, GMC                     : No warppoints
Format settings, Matrix                  : Default (H.263)
Muxing mode                              : Packed bitstream
Codec ID                                 : XVID
Codec ID/Hint                            : XviD
Duration                                 : 1h 52mn
Bit rate                                 : 851 Kbps
Width                                    : 680 pixels
Height                                   : 444 pixels
Display aspect ratio                     : 3:2
Frame rate                               : 29.970 (29970/1000) fps
Color space                              : YUV
Chroma subsampling                       : 4:2:0
Bit depth                                : 8 bits
Scan type                                : Progressive
Compression mode                         : Lossy
Bits/(Pixel*Frame)                       : 0.094
Stream size                              : 686 MiB (86%)
Writing library                          : XviD 1.2.1 (UTC 2008-12-04)

Audio
ID                                       : 1
Format                                   : MPEG Audio
Format version                           : Version 1
Format profile                           : Layer 3
Mode                                     : Joint stereo
Mode extension                           : MS Stereo
Codec ID                                 : 55
Codec ID/Hint                            : MP3
Duration                                 : 1h 52mn
Bit rate mode                            : Constant
Bit rate                                 : 128 Kbps
Channel(s)                               : 2 channels
Sampling rate                            : 44.1 KHz
Compression mode                         : Lossy
Stream size                              : 103 MiB (13%)
Alignment                                : Split accross interleaves
Interleave, duration                     : 33 ms (1.00 video frame)
Interleave, preload duration             : 500 ms
Language                                   : Serbo-Croatian


vlcsnap-2016-07-31-20h31m43s166.png

vlcsnap-2016-07-31-20h31m55s38.png

vlcsnap-2016-07-31-20h32m04s122.png

Hidden Content
You'll be able to see the hidden content once you thank this post.


Thanked by 92 Members:




Also tagged with one or more of these keywords: 1983, jugoslavija

0 user(s) are reading this topic

0 members, 0 guests, 0 anonymous users