Jump to content

Dobrodošli na Balkandownload.org
Tražite domaće knjige, exyu magazine, sinhronizirane crtane filmove, PC i ostale igre, strane i domaće filmove, dokumentarce, stranu i domaću muziku, itd. ? Ne morate tražiti dalje jer sve ćete to naći kod nas, uredno postavljeno i spremno za download. Osim toga registracijom možete sudjelovati u raznim postojećim temama na forumu, otvarati nove teme, sudjelovati u chatu i još mnogo toga. Ako već imaš otvoren račun, logiraj se ovde ,a ako želiš saznati zašto smo najbolji otvori novi račun i uverite se sami :)
Photo

Kad porastem biću Kengur (2004)


2 replies to this topic

#1
Biotloneta

Biotloneta

    Bronze Member

  • Moderator
  • PipPipPipPip
  • 1,409 posts
  • 65975 thanks
  • LocationRobija
                  Kad porastem biću Kengur (2004)
 
                                   Kad-porastem-bicu-kengur_slika_O_5214642
 

Please Login or Register to see this Hidden Content

 
Opis: Film govori o mladim ljudima koji su na granici prelaska u srednje godine, a nisu uradili ništa konkretno u svom životu. Radnja filma sastoji se iz tri međusobno isprepletene paralelne priče koje se odigravaju na beogradskoj opštini Voždovac. Čitava radnja filma odigrava se kroz tri priče u beogradskoj opštini Voždovac. Prva priča govori o mladom studentu filmske montaže, Braci (Sergej Trifunović), koji pokušava da „smuva“ lepu manekenku Iris (Marija Karan). Iako žive u dva različita sveta oboje se trude da to ne pokažu. U drugoj priči, Šomi (Boris Milivojević) i Duje (Nikola Vujović) zagriženo prate fudbalski susret Mančestera i Istviča. Kladili su se na Istvič, jer u njemu brani njihov drug iz detinjstva — Kengur (Nikola Đuričko). Utakmicu prate iz kladionice čiju svakodnevnicu čine nervozni taksista, provokator, doktor, šaner i ljudi kojima je kladionica posao, kao i radnica u kladionici, Kengurova bivša devojka. Radnja treće priče odvija se na krovu solitera gde Avaks (Lazar Strugar) i Hibrid (Miodrag Fišeković) „kradu bogu dane“ u iščekivanju da se nešto desi. Svakodnevnicu će im poremetiti NLO i Sreten Žujkić, penzioner koji se bori protiv globalizacije. Na kraju će se svi sresti na krovu, neki razočarani, a neki sa novom šansom.
 
Uloge:
Sergej Trifunović Braca
Marija Karan Iris
Boris Milivojević Šomi
Nikola Vujović Duje
Lazar Strugar Avaks
Miodrag Fišeković Hibrid
Gordan Kičić Sumpor
Nebojša Glogovac Živac, taksista
Mladen Andrejević Cile
Boris Komnenić Doktor
Srđan Miletić Toma Baksuz
Olga Odanović Rada, Kengurova majka
Ana Marković Ljubica
Goran Daničić Mile
Predrag Bjelac Baron, šaner
Petar Kralj Sreten Žujkić
Miloš Samolov Burgija
Aleksandar Šapić Gangula
Nikola Đuričko Kengur
Igor Brakus radio-voditelj (glas)
 
Režija: Radivoje Andrić
 
Žanr: Komedija, Drama
 
gNmLdDQ.jpg
 
Hidden Content
You'll be able to see the hidden content once you thank this post.

  tumblr_o89ik1YZEl1ssbvp5o1_500.gif

 

Za repload mrtvih linkova (domaćih filmova) ili želje za postavljanjem nekog filma kog ne možete da pronađete, obratite mi se putem privatne poruke.


Thanked by 219 Members:

#2
Zoran_

Zoran_

    Gold Member

  • VIP
  • PipPipPipPipPipPip
  • 5,990 posts
  • 149801 thanks
Kad porastem bicu Kengur (2004)
 
 
KadporastembicuKengur2004.png
 
imdb6.jpg
 

Please Login or Register to see this Hidden Content

 
Film se sastoji iz tri paralelne price koje se medjusobno preplicu i odigravaju na Vozdovcu. U prvoj prici, vozdovacki "urodjenik" Braca pokusava da "zbari" Iris, manekenku iz centra grada. Iako se trude da ne budu "dva sveta" oni to svakako jesu. U drugoj prici, somi i Duje se, u fudbalskoj utakmici Ipsvic Mancester, klade na pobedu Ipsvica jer u njemu brani njihov skolski drug. Treca prica odvija se na krovu solitera na kome Avaks i Hibrid, pobornici filozofije "najrentabilniji sam kada sedim u kuci nema prihoda, ali nema ni rashoda, provode dan u gluvarenju, ocekujuci da se nesto desi. Nesto se i desi - Avaks ugleda neobicnu pojavu na nebu.
 
e5i4s1zj7lo.png
 
KadporastembicuKengur2004.avi.gif
 
KadporastembicuKengur2004.avi.jpg
 
downloade0cdd.gif
 
Kad porastem bicu Kengur (2004) DVDRip.XviD.avi
 
SFYUbuP.jpg
 
Hidden Content
You'll be able to see the hidden content once you thank this post.

Molbe za moje linkove, šaljite na PP.

 

Zabranjeno je kopiranje mojih linkova,reupload i postavljanje na druge forume!


Thanked by 116 Members:

#3
Wolf 13

Wolf 13

    Advanced Member

  • Members
  • PipPipPip
  • 426 posts
  • 33612 thanks
Kad porastem bicu Kengur (2004) DVDrip DD5.1 x264 by Wolf
(MKV)
 
u6CDzWf.jpg
 

Please Login or Register to see this Hidden Content

 

General
Unique ID                   : 287167417179976543656966470211160933798 (0xD80A6ECAAA4BD72E439D902DC3DE85A6)
Complete name               : Kad porastem bicu Kengur (2004) DVDrip DD5.1 x264 by Wolf.mkv
Format                      : Matroska
Format version              : Version 4
File size                   : 1.28 GiB
Duration                    : 1 h 38 min
Overall bit rate            : 1 857 kb/s
Encoded date                : UTC 2019-03-06 17:01:15
Writing application         : mkvmerge v31.0.0 ('Dolores In A Shoestand') 64-bit
Writing library             : libebml v1.3.6 + libmatroska v1.4.9 / Lavf58.20.100
 
Video
ID                          : 1
Format                      : AVC
Format/Info                 : Advanced Video Codec
Format profile              : [email protected]
Format settings             : CABAC / 16 Ref Frames
Format settings, CABAC      : Yes
Format settings, ReFrames   : 16 frames
Codec ID                    : V_MPEG4/ISO/AVC
Duration                    : 1 h 38 min
Bit rate                    : 1 600 kb/s
Width                       : 716 pixels
Height                      : 576 pixels
Display aspect ratio        : 16:9
Frame rate mode             : Constant
Frame rate                  : 25.000 FPS
Color space                 : YUV
Chroma subsampling          : 4:2:0
Bit depth                   : 8 bits
Scan type                   : Progressive
Bits/(Pixel*Frame)          : 0.155
Stream size                 : 1.10 GiB (86%)
Title                       : Kad porastem bicu Kengur (2004)
Writing library             : x264 core 157 r2935 545de2f
Encoding settings           : cabac=1 / ref=16 / deblock=1:-1:-1 / analyse=0x3:0x133 / me=umh / subme=10 / psy=1 / psy_rd=1.00:0.15 / mixed_ref=1 / me_range=24 / chroma_me=1 / trellis=2 / 8x8dct=1 / cqm=0 / deadzone=21,11 / fast_pskip=1 / chroma_qp_offset=-3 / threads=6 / lookahead_threads=1 / sliced_threads=0 / nr=0 / decimate=1 / interlaced=0 / bluray_compat=0 / constrained_intra=0 / bframes=8 / b_pyramid=2 / b_adapt=2 / b_bias=0 / direct=3 / weightb=1 / open_gop=0 / weightp=2 / keyint=250 / keyint_min=25 / scenecut=40 / intra_refresh=0 / rc_lookahead=60 / rc=2pass / mbtree=1 / bitrate=1600 / ratetol=1.0 / qcomp=0.60 / qpmin=0 / qpmax=69 / qpstep=4 / cplxblur=20.0 / qblur=0.5 / vbv_maxrate=300000 / vbv_bufsize=300000 / nal_hrd=none / filler=0 / ip_ratio=1.40 / aq=1:1.00
Language                    : Serbian
Default                     : Yes
Forced                      : No
Color range                 : Limited
Color primaries             : BT.601 PAL
Transfer characteristics    : BT.709
Matrix coefficients         : BT.601
 
Audio
ID                          : 2
Format                      : E-AC-3
Format/Info                 : Enhanced AC-3
Commercial name             : Dolby Digital Plus
Codec ID                    : A_EAC3
Duration                    : 1 h 38 min
Bit rate mode               : Constant
Bit rate                    : 256 kb/s
Channel(s)                  : 6 channels
Channel layout              : L R C LFE Ls Rs
Sampling rate               : 48.0 kHz
Frame rate                  : 31.250 FPS (1536 SPF)
Compression mode            : Lossy
Delay relative to video     : -5 ms
Stream size                 : 181 MiB (14%)
Title                       : Kad porastem bicu Kengur (2004)
Language                    : Serbian
Service kind                : Complete Main
Default                     : Yes
Forced                      : No
 
epYscVA.png
Hidden Content
You'll be able to see the hidden content once you thank this post.
 
SxIMRPW.png
jG6xqoO.jpg


Thanked by 89 Members:



0 user(s) are reading this topic

0 members, 0 guests, 0 anonymous users