Jump to content

Dobrodošli na Balkandownload.org
Tražite domaće knjige, exyu magazine, sinhronizirane crtane filmove, PC i ostale igre, strane i domaće filmove, dokumentarce, stranu i domaću muziku, itd. ? Ne morate tražiti dalje jer sve ćete to naći kod nas, uredno postavljeno i spremno za download. Osim toga registracijom možete sudjelovati u raznim postojećim temama na forumu, otvarati nove teme, sudjelovati u chatu i još mnogo toga. Ako već imaš otvoren račun, logiraj se ovde ,a ako želiš saznati zašto smo najbolji otvori novi račun i uverite se sami :)
Photo

Balkanska pravila (1997)


2 replies to this topic

#1
Biotloneta

Biotloneta

    Bronze Member

  • Moderator
  • PipPipPipPip
  • 1,412 posts
  • 66542 thanks
  • LocationRobija
                        Balkanska pravila (1997)
 
                                                                                                         Balkanska-pravila-AKA-Balkan-Rules-1997.
 

Please Login or Register to see this Hidden Content

 
Opis: Akcioni film o tajnim odnosima jugoslovenske, srpske i hrvatske tajne policije kroz 50 godina. Ovde na Balkanu istina i laži su pomesani i to toliko dugo traje da niko ne nalazi razliku. Mozda je zato ova izmisljena prica u stvari istinita.
 
Uloge:
Branislav Lečić Aleksa Lazarević „Prašnjavi“
Lazar Ristovski Marko Lazarević „Matori“
Ana Sofrenović Jelena Basta „Medena“
Aleksandar Berček Baja
Dragan Bjelogrlić Božidar Pešić „Boža“
Tanja Bošković Marija Lazarević, majka
Nikola Kojo Ministar Suljo
Branko Vidaković Fotograf
Danilo Bata Stojković Petar Kostić, sajdžija
Velimir Bata Živojinović Šef Slobodan
Slobodan Ćustić Pukovnik Subotić
Andzela Gerekou Marija
Dušan Laušević Mali Prašnjavi
Darija Bajić Ćerka Prašnjavog
Bojana Kovačević Devojka
Aleksandar Srećković Mehaničar aviona
Ivan Klemenc Otmičar voza
Toni Laurenčić Francuski vojni ataše
Goran Šušljik Snajperista
Rada Đuričin Monahinja 1
Andrijana Videnović Monahinja 2
Dragan Petrović Ubica 1
Jovan Osmajlić Ubica 2
Danijela Vranješ Devojka u agenciji
Srdan Golubović Mladoženja
Minja Vojvodić Ložač
Vojislav Nikolić Vojče Harmonikaš
 
Režija: Darko Bajić
 
Žanr: Drama, Akcija
 
PCCIYcr.jpg
 
Hidden Content
You'll be able to see the hidden content once you thank this post.

  tumblr_o89ik1YZEl1ssbvp5o1_500.gif

 

Za repload mrtvih linkova (domaćih filmova) ili želje za postavljanjem nekog filma kog ne možete da pronađete, obratite mi se putem privatne poruke.


Thanked by 142 Members:

#2
LEMONZOO

LEMONZOO

    Bronze Member

  • VIP
  • PipPipPipPip
  • 1,088 posts
  • 18770 thanks
  • LocationGavran Mahala

Balkanska pravila (1997).HDTV.720p.x264-pOp

voa-Uhg-H04y2-BVAay-IYa-D0-UTau-NR.jpg

Please Login or Register to see this Hidden Content


Ovdje na Balkanu istina i laži su pomiješani i to toliko dugo traje da niko ne nalazi razliku. Možda je zato ova izmišljena priča u stvari istinita. Službena povijest zapisana je u knjigama, a naše sudbine često zavise od događaja koji se zapravo nikada nisu dogodili. Čini se kao da nikada nećemo saznati.
Akcijski film o tajnim odnosima jugoslovenske, srpske i hrvatske tajne policije kroz posljednjih 50 godina.

General
Unique ID : 165175420741510536339434634878303976597 (0x7C43A0FED292C214F51E6F7886B9BC95)
Complete name : /home/hd3/***/torrents/data/Balkanska pravila (1997).HDTV.720p.x264-pOp.mkv
Format : Matroska
Format version : Version 4 / Version 2
File size : 1.94 GiB
Duration : 1h 48mn
Overall bit rate : 2 553 Kbps
Writing application : Lavf57.71.100
Writing library : Lavf57.71.100 / Lavf57.71.100
ErrorDetectionType : Per level 1

Video
ID : 1
Format : AVC
Format/Info : Advanced Video Codec
Format profile : [email protected]
Format settings, CABAC : Yes
Format settings, ReFrames : 4 frames
Codec ID : V_MPEG4/ISO/AVC
Duration : 1h 48mn
Bit rate : 2 310 Kbps
Width : 1 280 pixels
Height : 720 pixels
Display aspect ratio : 16:9
Frame rate mode : Constant
Frame rate : 29.970 (30000/1001) fps
Color space : YUV
Chroma subsampling : 4:2:0
Bit depth : 8 bits
Scan type : Progressive
Bits/(Pixel*Frame) : 0.084
Stream size : 1.75 GiB (90%)
Writing library : x264 core 152 r2854 e9a5903
Encoding settings : cabac=1 / ref=3 / deblock=1:0:0 / analyse=0x3:0x133 / me=hex / subme=7 / psy=1 / psy_rd=1.00:0.00 / mixed_ref=1 / me_range=16 / chroma_me=1 / trellis=1 / 8x8dct=1 / cqm=0 / deadzone=21,11 / fast_pskip=1 / chroma_qp_offset=-2 / threads=6 / lookahead_threads=1 / sliced_threads=0 / nr=0 / decimate=1 / interlaced=0 / bluray_compat=0 / constrained_intra=0 / bframes=3 / b_pyramid=2 / b_adapt=1 / b_bias=0 / direct=1 / weightb=1 / open_gop=0 / weightp=2 / keyint=250 / keyint_min=25 / scenecut=40 / intra_refresh=0 / rc_lookahead=40 / rc=crf / mbtree=1 / crf=20.0 / qcomp=0.60 / qpmin=10 / qpmax=51 / qpstep=4 / ip_ratio=1.40 / aq=1:1.00
Default : Yes
Forced : No
DURATION : 01:48:37.377000000

Audio
ID : 2
Format : AC-3
Format/Info : Audio Coding 3
Mode extension : CM (complete main)
Format settings, Endianness : Big
Codec ID : A_AC3
Duration : 1h 48mn
Bit rate mode : Constant
Bit rate : 192 Kbps
Channel(s) : 2 channels
Channel positions : Front: L R
Sampling rate : 48.0 KHz
Frame rate : 31.250 fps (1536 spf)
Compression mode : Lossy
Delay relative to video : 25ms
Stream size : 149 MiB (8%)
Default : Yes
Forced : No
DURATION : 01:48:37.342000000
Language: Serbian | Greek

Subtitles: N/A



frame3.jpg

frame8.jpg

frame14.jpg

Hidden Content
You'll be able to see the hidden content once you thank this post.


Thanked by 113 Members:

#3
Zoran_

Zoran_

    Gold Member

  • VIP
  • PipPipPipPipPipPip
  • 6,008 posts
  • 150262 thanks
Balkanska pravila (1997)
 
 
Balkanskapravila1997.png
 
Su6Ksi6.jpg
 

Please Login or Register to see this Hidden Content

 
Akcioni film o tajnim odnosima jugoslovenske, srpske i hrvatske tajne policije kroz 50 godina. Ovde na Balkanu istina i laži su pomešani i to toliko dugo traje da niko ne nalazi razliku. Možda je zato ova izmišljena priča u stvari istinita
 
nfj6e803i6v.png
 
Balkanskapravila1997.avi.gif
 
Balkanskapravila1997.avi.jpg
 
Oets6ur.gif
 
Balkanska pravila (1997) DVDRip.XviD.avi
 
SFYUbuP.jpg
 
Hidden Content
You'll be able to see the hidden content once you thank this post.

Molbe za moje linkove, šaljite na PP.

 

Zabranjeno je kopiranje mojih linkova,reupload i postavljanje na druge forume!


Thanked by 73 Members:
kokiska , sturm , Nenad71088 , vojkebre , Jorgos , nikolansd , jadjonbv , bosnaBosnia , baronrajo , emporius , darkodj , uros032 , velbon , 303808909 , zpierre , spada , dr_obad , noviclan11 , lilke , mokizoki , b50andi , BATAKANDA , 8888 , bond2019 , draguljce86 , tiosav , PNPN , Nemek , zorandju , keops87 , vidla33 , Ludisrbin , Dusa132 , Bontonko , dule75 , mile budak , chefko , dodolanka , cela026 , laskavac , KurotsuchiMayuri , pedja225 , Anoreksik , mića11 , jocax , stanojkass , internetcaffe , Maximilianko , Szegedi , Milfir , satserb , retype12345 , VitoScaletta68 , vradjeno , xxxdacha , w11 , pleckowian , MP22 , Zorrran , choopo , nidzaza89 , kresomirovic , shadow_lord , salgija , zagortnt , aca72 , miki-maus23 , Korto74 , Gorolomac , cly-redix , gor , Nebojsa1985 , Biotloneta



0 user(s) are reading this topic

0 members, 0 guests, 0 anonymous users