Jump to content

Dobrodošli na Balkandownload.org
Tražite domaće knjige, exyu magazine, sinhronizirane crtane filmove, PC i ostale igre, strane i domaće filmove, dokumentarce, stranu i domaću muziku, itd. ? Ne morate tražiti dalje jer sve ćete to naći kod nas, uredno postavljeno i spremno za download. Osim toga registracijom možete sudjelovati u raznim postojećim temama na forumu, otvarati nove teme, sudjelovati u chatu i još mnogo toga. Ako već imaš otvoren račun, logiraj se ovde ,a ako želiš saznati zašto smo najbolji otvori novi račun i uverite se sami :)
Photo

Golemata voda aka The Great Water (2004)


No replies to this topic

#1
Wolf 13

Wolf 13

    Advanced Member

  • Members
  • PipPipPip
  • 426 posts
  • 33320 thanks
Golemata voda (2004) DVDrip E-AC3 x264 by Wolf
(MKV)
 
Rrym1tB.jpg
 

Please Login or Register to see this Hidden Content

 

 

General
Unique ID                   : 213203964558895576180916918218317945283 (0xA0659707A8813EDBE48566A81C3CD9C3)
Complete name               : Golemata voda (2004) DVDrip E-AC3 x264 by Wolf.mkv
Format                      : Matroska
Format version              : Version 4 / Version 2
File size                   : 1.15 GiB
Duration                    : 1 h 33 min
Overall bit rate            : 1 758 kb/s
Encoded date                : UTC 2018-07-31 16:45:06 / UTC 2018-07-31T11:43:49Z
Writing application         : mkvmerge v25.0.0 ('Prog Noir') 64-bit
Writing library             : libebml v1.3.6 + libmatroska v1.4.9 / Lavf57.7.2
 
Video
ID                          : 1
Format                      : AVC
Format/Info                 : Advanced Video Codec
Format profile              : High [email protected]
Format settings             : CABAC / 4 Ref Frames
Format settings, CABAC      : Yes
Format settings, ReFrames   : 4 frames
Codec ID                    : V_MPEG4/ISO/AVC
Duration                    : 1 h 33 min
Bit rate                    : 1 500 kb/s
Width                       : 720 pixels
Height                      : 362 pixels
Display aspect ratio        : 2.35:1
Original display aspect rat : 2.35:1
Frame rate mode             : Constant
Frame rate                  : 29.970 (30000/1001) FPS
Color space                 : YUV
Chroma subsampling          : 4:2:0
Bit depth                   : 10 bits
Scan type                   : Progressive
Bits/(Pixel*Frame)          : 0.192
Stream size                 : 985 MiB (83%)
Title                       : Golemata voda (2004)
Writing library             : x264 core 155 r2901 7d0ff22
Encoding settings           : cabac=1 / ref=2 / deblock=1:0:0 / analyse=0x3:0x113 / me=hex / subme=6 / psy=1 / psy_rd=1.00:0.00 / mixed_ref=1 / me_range=16 / chroma_me=1 / trellis=1 / 8x8dct=1 / cqm=0 / deadzone=21,11 / fast_pskip=1 / chroma_qp_offset=-2 / threads=3 / lookahead_threads=1 / sliced_threads=0 / nr=0 / decimate=1 / interlaced=0 / bluray_compat=0 / constrained_intra=0 / bframes=3 / b_pyramid=2 / b_adapt=1 / b_bias=0 / direct=1 / weightb=1 / open_gop=0 / weightp=1 / keyint=300 / keyint_min=30 / scenecut=40 / intra_refresh=0 / rc_lookahead=30 / rc=2pass / mbtree=1 / bitrate=1500 / ratetol=1.0 / qcomp=0.60 / qpmin=0 / qpmax=81 / qpstep=4 / cplxblur=20.0 / qblur=0.5 / vbv_maxrate=150000 / vbv_bufsize=187500 / nal_hrd=none / filler=0 / ip_ratio=1.40 / aq=1:1.00
Language                    : Macedonian
Default                     : Yes
Forced                      : No
Color range                 : Limited
Color primaries             : BT.601 NTSC
Transfer characteristics    : BT.709
Matrix coefficients         : BT.601
Statistics Tags Issue       : mkvmerge v25.0.0 ('Prog Noir') 64-bit 2018-07-31 16:45:06 / mkvmerge v25.0.0 ('Prog Noir') 64-bit 2018-07-31 16:45:06 / UTC 2018-07-31T11:43:49Z
FromStats_BitRate           : 1500324
FromStats_Duration          : 01:33:52.026000000
FromStats_FrameCount        : 168792
FromStats_StreamSize        : 1056233552
 
Audio
ID                          : 2
Format                      : E-AC-3
Format/Info                 : Enhanced Audio Coding 3
Codec ID                    : A_EAC3
Duration                    : 1 h 33 min
Bit rate mode               : Constant
Bit rate                    : 256 kb/s
Channel(s)                  : 6 channels
Channel positions           : Front: L C R, Side: L R, LFE
Sampling rate               : 48.0 kHz
Frame rate                  : 187.500 FPS (256 SPF)
Compression mode            : Lossy
Stream size                 : 172 MiB (15%)
Title                       : Golemata voda (2004)
Language                    : Macedonian
Service kind                : Complete Main
Default                     : Yes
Forced                      : No
Statistics Tags Issue       : mkvmerge v25.0.0 ('Prog Noir') 64-bit 2018-07-31 16:45:06 / mkvmerge v25.0.0 ('Prog Noir') 64-bit 2018-07-31 16:45:06 / UTC 2018-07-31T11:43:49Z
FromStats_BitRate           : 256000
FromStats_Duration          : 01:33:52.000000000
FromStats_FrameCount        : 176000
FromStats_StreamSize        : 180224000
 
Text
ID                          : 3
Format                      : UTF-8
Codec ID                    : S_TEXT/UTF8
Codec ID/Info               : UTF-8 Plain Text
Title                       : V E L I K A  V O D A
Language                    : Serbian
Default                     : Yes
Forced                      : No
Statistics Tags Issue       : mkvmerge v25.0.0 ('Prog Noir') 64-bit 2018-07-31 16:45:06 / mkvmerge v25.0.0 ('Prog Noir') 64-bit 2018-07-31 16:45:06 / UTC 2018-07-31T11:43:49Z
FromStats_BitRate           : 28
FromStats_Duration          : 01:30:23.104000000
FromStats_FrameCount        : 598
FromStats_StreamSize        : 19399
 
epYscVA.png
Hidden Content
You'll be able to see the hidden content once you thank this post.
zbNKcak.jpg
Hidden Content
You'll be able to see the hidden content once you thank this post.
j8OQvfv.png
TDwvAi1.jpg

Edited by Wolf 13, 01 September 2019 - 22:11.


Thanked by 41 Members:
zljaka , debelodete , mikimanojlo , dr_obad , IdeMile , chefko , damblldorr , rafael13 , andra petak , Neso1961 , mercury99 , PEKIPEKICA , nikollla , nixonns , radonja86 , 1zec , kenijada , rakia1960 , somrda , emotivac , dreidolin , Auntiffr , nenad72yu , cikakosta , OgiDR , seisgk , chadjox , zoran48 , ivcxo , gerpu , krkanbeg , grof65 , Vronsky , Zelenac1 , bratobulje , retar , cole_bor , Milan1959 , iceman_79 , mikula11 , krabulja



0 user(s) are reading this topic

0 members, 0 guests, 0 anonymous users