Jump to content

Dobrodošli na Balkandownload.org
Tražite domaće knjige, exyu magazine, sinhronizirane crtane filmove, PC i ostale igre, strane i domaće filmove, dokumentarce, stranu i domaću muziku, itd. ? Ne morate tražiti dalje jer sve ćete to naći kod nas, uredno postavljeno i spremno za download. Osim toga registracijom možete sudjelovati u raznim postojećim temama na forumu, otvarati nove teme, sudjelovati u chatu i još mnogo toga. Ako već imaš otvoren račun, logiraj se ovde ,a ako želiš saznati zašto smo najbolji otvori novi račun i uverite se sami :)
Photo

Armin (2007)


No replies to this topic

#1
Wolf 13

Wolf 13

    Advanced Member

  • Members
  • PipPipPip
  • 426 posts
  • 33320 thanks
Armin (2007) DVDrip DD5.1 x264 by Wolf
(MKV) HQ
 
d7od381.jpg
 

Please Login or Register to see this Hidden Content

 

General
Unique ID                   : 171797293442780955583582559578608782003 (0x813EF486B777CBAA0B96C73DB7164AB3)
Complete name               : Armin (2007) DVDrip DD5.1 x264 by Wolf.mkv
Format                      : Matroska
Format version              : Version 4
File size                   : 1.05 GiB
Duration                    : 1 h 21 min
Overall bit rate            : 1 855 kb/s
Encoded date                : UTC 2019-03-13 15:21:12
Writing application         : mkvmerge v31.0.0 ('Dolores In A Shoestand') 64-bit
Writing library             : libebml v1.3.6 + libmatroska v1.4.9 / Lavf58.20.100
 
Video
ID                          : 1
Format                      : AVC
Format/Info                 : Advanced Video Codec
Format profile              : [email protected]
Format settings             : CABAC / 16 Ref Frames
Format settings, CABAC      : Yes
Format settings, ReFrames   : 16 frames
Codec ID                    : V_MPEG4/ISO/AVC
Duration                    : 1 h 21 min
Bit rate                    : 1 600 kb/s
Width                       : 714 pixels
Height                      : 576 pixels
Display aspect ratio        : 16:9
Original display aspect rat : 16:9
Frame rate mode             : Constant
Frame rate                  : 25.000 FPS
Color space                 : YUV
Chroma subsampling          : 4:2:0
Bit depth                   : 8 bits
Scan type                   : Progressive
Bits/(Pixel*Frame)          : 0.156
Stream size                 : 927 MiB (86%)
Title                       : Armin (2007)
Writing library             : x264 core 157 r2935 545de2f
Encoding settings           : cabac=1 / ref=16 / deblock=1:-1:-1 / analyse=0x3:0x133 / me=umh / subme=10 / psy=1 / psy_rd=1.00:0.15 / mixed_ref=1 / me_range=24 / chroma_me=1 / trellis=2 / 8x8dct=1 / cqm=0 / deadzone=21,11 / fast_pskip=1 / chroma_qp_offset=-3 / threads=6 / lookahead_threads=1 / sliced_threads=0 / nr=0 / decimate=1 / interlaced=0 / bluray_compat=0 / constrained_intra=0 / bframes=8 / b_pyramid=2 / b_adapt=2 / b_bias=0 / direct=3 / weightb=1 / open_gop=0 / weightp=2 / keyint=250 / keyint_min=25 / scenecut=40 / intra_refresh=0 / rc_lookahead=60 / rc=2pass / mbtree=1 / bitrate=1600 / ratetol=1.0 / qcomp=0.60 / qpmin=0 / qpmax=69 / qpstep=4 / cplxblur=20.0 / qblur=0.5 / vbv_maxrate=300000 / vbv_bufsize=300000 / nal_hrd=none / filler=0 / ip_ratio=1.40 / aq=1:1.00
Language                    : Croatian
Default                     : Yes
Forced                      : No
Color range                 : Limited
Color primaries             : BT.601 PAL
Transfer characteristics    : BT.709
Matrix coefficients         : BT.601
 
Audio
ID                          : 2
Format                      : E-AC-3
Format/Info                 : Enhanced AC-3
Commercial name             : Dolby Digital Plus
Codec ID                    : A_EAC3
Duration                    : 1 h 21 min
Bit rate mode               : Constant
Bit rate                    : 256 kb/s
Channel(s)                  : 6 channels
Channel layout              : L R C LFE Ls Rs
Sampling rate               : 48.0 kHz
Frame rate                  : 31.250 FPS (1536 SPF)
Compression mode            : Lossy
Delay relative to video     : -5 ms
Stream size                 : 149 MiB (14%)
Title                       : Armin (2007)
Language                    : Croatian
Service kind                : Complete Main
Default                     : Yes
Forced                      : No
 
epYscVA.png
Hidden Content
You'll be able to see the hidden content once you thank this post.
 
TKni9C9.png
xGWy5o7.jpg

Edited by Wolf 13, 13 March 2019 - 18:15.


Thanked by 32 Members:
goransokolovic.fr , Gale92 , Looper321 , Daki15 , kenwood , jasminh , klingon7 , mawerick , chefko , draganiuss , rafael13 , edgeofsanity , Biggoca37 , dragan13 , kresomirovic , mercury99 , Tajson , Smajo , nenadbp , planb , urs517 , nixonns , js1984 , rusko , smajo , opetopet , beograd1960' , dreidolin , Zelenac1 , mikula11 , draganik , Biotloneta



0 user(s) are reading this topic

0 members, 0 guests, 0 anonymous users