Jump to content

Dobrodošli na Balkandownload.org
Tražite domaće knjige, exyu magazine, sinhronizirane crtane filmove, PC i ostale igre, strane i domaće filmove, dokumentarce, stranu i domaću muziku, itd. ? Ne morate tražiti dalje jer sve ćete to naći kod nas, uredno postavljeno i spremno za download. Osim toga registracijom možete sudjelovati u raznim postojećim temama na forumu, otvarati nove teme, sudjelovati u chatu i još mnogo toga. Ako već imaš otvoren račun, logiraj se ovde ,a ako želiš saznati zašto smo najbolji otvori novi račun i uverite se sami :)
Photo

Pogled sa Ajfelovog tornja (2005)


2 replies to this topic

#1
Biotloneta

Biotloneta

    Bronze Member

  • Moderator
  • PipPipPipPip
  • 1,397 posts
  • 64014 thanks
  • LocationRobija
      Pogled sa Ajfelovog tornja (2005)
 
                                      PoOyGgQ.jpg
 

Please Login or Register to see this Hidden Content

 
Opis: Marijana je lepa i bogata dvadesetpetogodišnja devojka. Kada je imala 16 godina, kratka ljubavna afera sa šefom njenog oca pretvorila se u traumu. Marijanin otac koji je ginekolog, tada nije uradio ništa da zaštiti svoju ćerku, i za to ćutanje i diskreciju dobio je od svog šefa priliku za brzo napredovanje i učestvovanje u skupim ilegalnim abortusima. Pored toga, dobio je i Marijaninu mržnju za sva vremena. Deset godina posle svega, Marijanina porodica je bogata i uspešna, a njen otac je ginekolog koji sarađuje s mnogim privatnim klinikama i ima specijalnu klijentelu. Marijana je postala lepa i privlačna devojka koja studira medicinu. Svom ocu se sveti tako što se prostituiše, isključivo s njegovim kolegama, ne bi li to ugrozilo očevu reputaciju jer smatra da je to jedini mogući način za osvetu. Ali kada upozna Vanju, u koga se zaljubljuje tada prestaje sa svojom osvetom.
 
Uloge:
Branislav Trifunović Vanja
Marija Vicković Marijana
Andrija Milošević Đuka
Svetozar Cvetković Marijanin otac
Dragana Mrkić Marijanina majka
Darko Rundek Doktor
Irfan Mensur Doktor Vukan
Igor Lazić Niggor Narkoman
Sergej Trifunović Čovek sa nogama u lavoru
Petar Božović Govornik na sahrani
Lena Bogdanović
Dubravka Vukotić Drakić
Varja Đukić
 
Režija: Nikola Vukčević
 
Žanr: Drama, Romansa
 
34785.jpg
 
Hidden Content
You'll be able to see the hidden content once you thank this post.

  tumblr_o89ik1YZEl1ssbvp5o1_500.gif

 

Za repload mrtvih linkova (domaćih filmova) ili želje za postavljanjem nekog filma kog ne možete da pronađete, obratite mi se putem privatne poruke.


Thanked by 67 Members:
StefanUžice , rajka.bogda , draganiuss , Demode , chefko , Inche , mare12 , spalemarko , okac , boki vulov , maxa357 , DenisMTO , Homss , dvukicev , mean machine , liquid , nesamom , jamajka1 , Zomby , sturm , pegaz111 , neprilagođen , VaxBR , Ivan84 , kockari , Jackie Chan , 011gogo , nenadbp , Dostanic , masterlaky , zagortnt , urs517 , anagarta , Barbarela , js1984 , saba85 , PEKIPEKICA , b50andi , nizde ml , majag , krstic2003 , emotivac , burence , starrats , danijeladanijel , NikolaGru , auggie , bendjoni , Shogun66 , wilmaed , Makoto Nagano , danep , zoltan , zoran48 , granamax , Usualman , opetopet , mesele , robertp , Miki_Kiki_Riki , Zelenac1 , markpw , Auntiffr , icaleptir , mikula11 , vladap021 , Milan1959

#2
Wolf 13

Wolf 13

    Advanced Member

  • Members
  • PipPipPip
  • 426 posts
  • 33316 thanks
Pogled sa Ajfelovog tornja (2005) DVDrip E-AC3 x264 by Wolf
(MKV)
 
hr7BhxF.jpg
 

Please Login or Register to see this Hidden Content

 

General
Unique ID                   : 137937108697151874111341451807783775493 (0x67C5B886E2EFA5FC99E24E067079ED05)
Complete name               : Pogled sa Ajfelovog tornja (2005) DVDrip E-AC3 x264 by Wolf.mkv
Format                      : Matroska
Format version              : Version 4 / Version 2
File size                   : 1.12 GiB
Duration                    : 1 h 30 min
Overall bit rate            : 1 758 kb/s
Encoded date                : UTC 2018-09-25 16:13:49 / UTC 2018-09-25T11:03:16Z
Writing application         : mkvmerge v26.0.0 ('In The Game') 64-bit
Writing library             : libebml v1.3.6 + libmatroska v1.4.9 / Lavf57.7.2
 
Video
ID                          : 1
Format                      : AVC
Format/Info                 : Advanced Video Codec
Format profile              : High [email protected]
Format settings             : CABAC / 5 Ref Frames
Format settings, CABAC      : Yes
Format settings, ReFrames   : 5 frames
Codec ID                    : V_MPEG4/ISO/AVC
Duration                    : 1 h 30 min
Bit rate                    : 1 500 kb/s
Width                       : 718 pixels
Height                      : 576 pixels
Display aspect ratio        : 16:9
Frame rate mode             : Constant
Frame rate                  : 25.000 FPS
Color space                 : YUV
Chroma subsampling          : 4:2:0
Bit depth                   : 10 bits
Scan type                   : Progressive
Bits/(Pixel*Frame)          : 0.145
Stream size                 : 953 MiB (83%)
Title                       : Pogled sa Ajfelovog tornja (2005)
Writing library             : x264 core 155 r2901 7d0ff22
Encoding settings           : cabac=1 / ref=5 / deblock=1:-1:-1 / analyse=0x3:0x113 / me=hex / subme=8 / psy=1 / psy_rd=1.00:0.15 / mixed_ref=1 / me_range=16 / chroma_me=1 / trellis=2 / 8x8dct=1 / cqm=0 / deadzone=21,11 / fast_pskip=1 / chroma_qp_offset=-3 / threads=6 / lookahead_threads=1 / sliced_threads=0 / nr=0 / decimate=1 / interlaced=0 / bluray_compat=0 / constrained_intra=0 / bframes=3 / b_pyramid=2 / b_adapt=1 / b_bias=0 / direct=3 / weightb=1 / open_gop=0 / weightp=2 / keyint=250 / keyint_min=25 / scenecut=40 / intra_refresh=0 / rc_lookahead=50 / rc=2pass / mbtree=1 / bitrate=1500 / ratetol=1.0 / qcomp=0.60 / qpmin=0 / qpmax=81 / qpstep=4 / cplxblur=20.0 / qblur=0.5 / vbv_maxrate=150000 / vbv_bufsize=187500 / nal_hrd=none / filler=0 / ip_ratio=1.40 / aq=1:1.00
Language                    : Serbian
Default                     : Yes
Forced                      : No
Color range                 : Limited
Color primaries             : BT.601 PAL
Transfer characteristics    : BT.709
Matrix coefficients         : BT.601
Statistics Tags Issue       : mkvmerge v26.0.0 ('In The Game') 64-bit 2018-09-25 16:13:49 / mkvmerge v26.0.0 ('In The Game') 64-bit 2018-09-25 16:13:49 / UTC 2018-09-25T11:03:16Z
FromStats_BitRate           : 1499908
FromStats_Duration          : 01:30:49.600000000
FromStats_FrameCount        : 136240
FromStats_StreamSize        : 1021737892
 
Audio
ID                          : 2
Format                      : E-AC-3
Format/Info                 : Enhanced Audio Coding 3
Codec ID                    : A_EAC3
Duration                    : 1 h 30 min
Bit rate mode               : Constant
Bit rate                    : 256 kb/s
Channel(s)                  : 6 channels
Channel positions           : Front: L C R, Side: L R, LFE
Sampling rate               : 48.0 kHz
Frame rate                  : 187.500 FPS (256 SPF)
Compression mode            : Lossy
Delay relative to video     : -21 ms
Stream size                 : 166 MiB (15%)
Title                       : Pogled sa Ajfelovog tornja (2005)
Language                    : Serbian
Service kind                : Complete Main
Default                     : Yes
Forced                      : No
Statistics Tags Issue       : mkvmerge v26.0.0 ('In The Game') 64-bit 2018-09-25 16:13:49 / mkvmerge v26.0.0 ('In The Game') 64-bit 2018-09-25 16:13:49 / UTC 2018-09-25T11:03:16Z
FromStats_BitRate           : 256000
FromStats_Duration          : 01:30:49.568000000
FromStats_FrameCount        : 170299
FromStats_StreamSize        : 174386176
 
k2aTdzy.png
Hidden Content
You'll be able to see the hidden content once you thank this post.
 
kOND0LW.png
2pbaDNd.jpg


Thanked by 35 Members:
chefko , buterfly80 , rafael13 , spalemarko , emotivac , boki vulov , dvukicev , vlaha8 , MP22 , danep , icaleptir , acika94 , goranjevic , Zomby , sturm , 011gogo , pegaz111 , neprilagođen , 00dragan00 , rajsmed , zagortnt , nixonns , Zorrran , beograd1960' , anagarta , callipso , grof65 , aleksapet , foxmolder , ruzina , woodooye , che040 , opetopet , Zelenac1 , alando9

#3
Zoran_

Zoran_

    Gold Member

  • VIP
  • PipPipPipPipPipPip
  • 5,983 posts
  • 149036 thanks
Pogled sa Ajfelovog tornja (2005)
 
 
PogledsaAjfelovogtornja2005.png
 
Su6Ksi6.jpg
 

Please Login or Register to see this Hidden Content

 
Marijana je lepa i bogata dvadesetpetogodisnja devojka. Kada je imala 16 godina, kratka ljubavna afera sa sefom njenog oca pretvorila se u traumu. Marijanin otac, ginekolog, tada nije uradio nista da je zastiti, a za cutanje i diskreciju dobio je od svog sefa priliku za brzo napredovanje i ucestvovanje u skupim ilegalnim abortusima. Pored toga, dobio je i Marijaninu mrznju za sva vremena. Danas, deset godina kasnije, na osnovu svega toga - Marijanina porodica je bogata, uspesna i omiljena u elitnom drustvu, a njen otac je cuveni ginekolog koji saradjuje s mnogim privatnim klinikama i ima specijalnu klijentelu. Na drugoj strani, Marijana je izrasla u lepu i veoma privlacnu devojku, studira medicinu - i svom ocu se sveti na svoj neobian nain: prostituisuci se iskljucivo s njegovim kolegama, ne bi li to ugrozilo ocevu reputaciju. Ona je svesna da to nije pravi nacin za osvetu - jer se ni sama ne oseca najbolje u svemu tome, ali u nedostatku druge mogucnosti ipak ne posustaje. Marijana upoznaje mladica Vanju, skulptora iz predgradja, u koga ce se zaljubiti i koji ce joj otvoriti prostore ljubavi i poverenja, postajuci specifican razlog da ona prestane sa svojim nacinom osvete. Ipak, ta dva sveta - svet prostitucije i osvete na jednoj strani i svet Vanje i ljubavi na drugoj - nece moci da zive zajedno. Dolazi do sukoba s mogucnostima za nastanak jos tezih posledica…
 
3cw6oq1yro.png
 
PogledsaAjfelovogtornja2005.avi.gif
 
PogledsaAjfelovogtornja2005.avi.jpg
 
Pogled sa Ajfelovog tornja (2005) DVDRip.XviD.avi
 
SFYUbuP.jpg
 
Hidden Content
You'll be able to see the hidden content once you thank this post.

Molbe za moje linkove, šaljite na PP.

 

Zabranjeno je kopiranje mojih linkova,reupload i postavljanje na druge forume!


Thanked by 18 Members:
goransokolovic.fr , Dijana1974 , rajka.bogda , sabor , b50andi , pelezic , chefko , Inche , sturm , kanki , satserb , DenisMTO , Jokso , dvukicev , MP22 , icaleptir , Korto74 , aca72



0 user(s) are reading this topic

0 members, 0 guests, 0 anonymous users