Jump to content

Dobrodošli na Balkandownload.org
Tražite domaće knjige, exyu magazine, sinhronizirane crtane filmove, PC i ostale igre, strane i domaće filmove, dokumentarce, stranu i domaću muziku, itd. ? Ne morate tražiti dalje jer sve ćete to naći kod nas, uredno postavljeno i spremno za download. Osim toga registracijom možete sudjelovati u raznim postojećim temama na forumu, otvarati nove teme, sudjelovati u chatu i još mnogo toga. Ako već imaš otvoren račun, logiraj se ovde ,a ako želiš saznati zašto smo najbolji otvori novi račun i uverite se sami :)
Photo

Kalvarija (1996)

1996 hrvatska drama

No replies to this topic

#1
LEMONZOO

LEMONZOO

    Bronze Member

  • VIP
  • PipPipPipPip
  • 1,087 posts
  • 18686 thanks
  • LocationGavran Mahala

Kalvarija (1996) aka Calvary VHSRip

BFqpS.jpg

Please Login or Register to see this Hidden Content


A traveling accordionist and superintendent of an old castle lives in an unhappy marriage, with a grown up daughter and has a sister-in-law who has been in love with him for years. During a trip, he meets young journalist (Mato Pavelic)and falls madly in love. His visit to the old castle tears the family apart, resulting in tragedy.

General
Complete name               : Kalvarija.avi
Format                      : DivX
Format/Info                 : Hack of AVI
File size                   : 2.09 GiB
Duration                    : 1 h 33 min
Overall bit rate            : 3 201 kb/s
FileExtension_Invalid       : divx

Video
ID                          : 0
Format                      : MPEG-4 Visual
Format settings, BVOP       : No
Format settings, QPel       : No
Format settings, GMC        : No warppoints
Format settings, Matrix     : Default (H.263)
Codec ID                    : DX50
Codec ID/Hint               : DivX 5
Duration                    : 1 h 33 min
Bit rate                    : 2 999 kb/s
Nominal bit rate            : 4 854 kb/s
Width                       : 720 pixels
Height                      : 540 pixels
Display aspect ratio        : 4:3
Frame rate                  : 25.000 FPS
Color space                 : YUV
Chroma subsampling          : 4:2:0
Bit depth                   : 8 bits
Scan type                   : Progressive
Compression mode            : Lossy
Bits/(Pixel*Frame)          : 0.309
Stream size                 : 1.96 GiB (94%)
Title                       : Video
Writing library             : DivX 6.6.1.4

Audio
ID                          : 1
Format                      : MPEG Audio
Format version              : Version 1
Format profile              : Layer 3
Format settings             : Joint stereo / MS Stereo
Codec ID                    : 55
Codec ID/Hint               : MP3
Duration                    : 1 h 33 min
Bit rate mode               : Constant
Bit rate                    : 192 kb/s
Channel(s)                  : 2 channels
Sampling rate               : 48.0 kHz
Compression mode            : Lossy
Stream size                 : 128 MiB (6%)
Alignment                   : Split accross interleaves
Interleave, duration        : 40  ms (1.00 video frame)
Interleave, preload duratio : 500  ms
Title                       : Audio
Writing library             : LAME3.96


Kalvarija-avi-snapshot-00-01-14-834.jpg

Kalvarija-avi-snapshot-00-29-59-000.jpg

Kalvarija-avi-snapshot-00-53-06-000.jpg

Hidden Content
You'll be able to see the hidden content once you thank this post.


Engleski titl:
Hidden Content
You'll be able to see the hidden content once you thank this post.


Thanked by 54 Members:
banecar50 , ETKINNI , IdeMile , chefko , draganiuss , tiho14 , rafael13 , sstevan , dragan13 , kutija318 , 1zec , Anoreksik , vsdecko , Nazgul666 , danijeladanijel , kockari , mercury99 , bogifiorentino , jovicai , 2017zt , srdjanz1911 , jumanjinz , zoran48 , zagortnt , golovratan , Alamo74 , grof65 , vrdule , skuter1234 , Biotloneta , nixonns , alando9 , PEKIPEKICA , chadjox , urs517 , Petronije11 , Manipe , dadozanin , akiro , Priboj64 , Aquavald , opetopet , hajdukjovance , Milan1959 , kosingas , tanja032001 , dubo , Smajo , icaleptir , marili , bole60 , bracovina , mikula11 , Branko101




Also tagged with one or more of these keywords: 1996, hrvatska, drama

0 user(s) are reading this topic

0 members, 0 guests, 0 anonymous users