Jump to content

Dobrodošli na Balkandownload.org
Tražite domaće knjige, exyu magazine, sinhronizirane crtane filmove, PC i ostale igre, strane i domaće filmove, dokumentarce, stranu i domaću muziku, itd. ? Ne morate tražiti dalje jer sve ćete to naći kod nas, uredno postavljeno i spremno za download. Osim toga registracijom možete sudjelovati u raznim postojećim temama na forumu, otvarati nove teme, sudjelovati u chatu i još mnogo toga. Ako već imaš otvoren račun, logiraj se ovde ,a ako želiš saznati zašto smo najbolji otvori novi račun i uverite se sami :)
Photo

Južni vetar (2018)


2 replies to this topic

#1
BD_TV

BD_TV

    Gold Member

  • Sponsor
  • PipPipPipPipPipPip
  • 8,689 posts
  • 510025 thanks

Južni vetar (2018) 720p HDRip x264 - BD4YU

 

18-9-2018-14-37-17-juzni-vetar-srb.jpg

Please Login or Register to see this Hidden Content

Režija: Miloš Avramović
Scenario: Miloš Avramović, Petar Mihajlović
Direktor fotografije: Ivan Kostić
Glumci: Miloš Biković, Miodrag Radonjić, Dragan Bjelogrlić, Jovana Stojiljković, Nebojša Glogovac, Srđan Todorović, Miloš Timotijević, Jasna Đuričić, Bogdan Diklić
Žanr: Kriminalistički


Opis:
Stvari počinju da imaju smisla u životu Petra Maraša, kradljivca automobila iz Beograda. Napušta dom svojih roditelja i useljava se u novi stan sa svojom dugogodišnjom devojkom Sofijom. Banda čiji je član, koju predvodi iskusni Car, uspešno posluje. Ima dovoljno novca za sve i policija ih ne gnjavi. Međustim, sve se menja kada ukrade pogrešan automobil.

 

Format: MKV

Veličina: 1,49 GB

Rezolucija: 1280 x 530

Jezik: srpski, aac

Titlovi: ruski (1 red sporadično), srpski gde je potrebno (hvala nAnaD)

 

vlcsnap-2018-11-14-12h19m37s508.png

 

vlcsnap-2018-11-14-12h19m53s133.png

 

vlcsnap-2018-11-14-12h20m02s570.png

 

 

Preuzimanje - klik na ikonicu "thanks" kako bi se linkovi za preuzimanje otvorili

Hidden Content
You'll be able to see the hidden content once you thank this post.



Thanked by 1789 Members:

#2
BD_TV

BD_TV

    Gold Member

  • Sponsor
  • PipPipPipPipPipPip
  • 8,689 posts
  • 510025 thanks
Južni vetar (2018) HD HC 1080p SA WATERMARKOM
 
QjlIwGe.jpg
 
Hidden Content
You'll be able to see the hidden content once you thank this post.


Thanked by 801 Members:

#3
Wolf 13

Wolf 13

    Advanced Member

  • Members
  • PipPipPip
  • 426 posts
  • 33666 thanks
Juzni vetar (2018) HC 1080p HDrip DD5.1 x264 by Wolf
(MKV) HQ
 
hBrnzyK.png
 

Please Login or Register to see this Hidden Content

 

 

General
Unique ID                   : 33686617127146822599508066060714549222 (0x1957CE747DF89F405C7FD8469A0E9FE6)
Complete name               : Juzni vetar (2018) HC 1080p HDrip DD5.1 x264 by Wolf.mkv
Format                      : Matroska
Format version              : Version 4
File size                   : 1.60 GiB
Duration                    : 2 h 10 min
Overall bit rate            : 1 757 kb/s
Encoded date                : UTC 2019-03-28 08:07:40
Writing application         : mkvmerge v32.0.0 ('Astral Progressions') 64-bit
Writing library             : libebml v1.3.7 + libmatroska v1.5.0 / Lavf58.20.100
 
Video
ID                          : 1
Format                      : AVC
Format/Info                 : Advanced Video Codec
Format profile              : [email protected]
Format settings             : CABAC / 8 Ref Frames
Format settings, CABAC      : Yes
Format settings, ReFrames   : 8 frames
Codec ID                    : V_MPEG4/ISO/AVC
Duration                    : 2 h 10 min
Bit rate                    : 1 500 kb/s
Width                       : 1 920 pixels
Height                      : 808 pixels
Display aspect ratio        : 2.40:1
Frame rate mode             : Constant
Frame rate                  : 24.000 FPS
Color space                 : YUV
Chroma subsampling          : 4:2:0
Bit depth                   : 8 bits
Scan type                   : Progressive
Bits/(Pixel*Frame)          : 0.040
Stream size                 : 1.37 GiB (85%)
Title                       : Juzni vetar (2018)
Writing library             : x264 core 157 r2935 545de2f
Encoding settings           : cabac=1 / ref=8 / deblock=1:-1:-1 / analyse=0x3:0x133 / me=umh / subme=9 / psy=1 / psy_rd=1.00:0.15 / mixed_ref=1 / me_range=16 / chroma_me=1 / trellis=2 / 8x8dct=1 / cqm=0 / deadzone=21,11 / fast_pskip=1 / chroma_qp_offset=-3 / threads=6 / lookahead_threads=1 / sliced_threads=0 / nr=0 / decimate=1 / interlaced=0 / bluray_compat=0 / constrained_intra=0 / bframes=3 / b_pyramid=2 / b_adapt=2 / b_bias=0 / direct=3 / weightb=1 / open_gop=0 / weightp=2 / keyint=240 / keyint_min=24 / scenecut=40 / intra_refresh=0 / rc_lookahead=60 / rc=2pass / mbtree=1 / bitrate=1500 / ratetol=1.0 / qcomp=0.60 / qpmin=0 / qpmax=69 / qpstep=4 / cplxblur=20.0 / qblur=0.5 / vbv_maxrate=300000 / vbv_bufsize=300000 / nal_hrd=none / filler=0 / ip_ratio=1.40 / aq=1:1.00
Language                    : Serbian
Default                     : Yes
Forced                      : No
Color range                 : Limited
Color primaries             : BT.709
Transfer characteristics    : BT.709
Matrix coefficients         : BT.709
 
Audio
ID                          : 2
Format                      : E-AC-3
Format/Info                 : Enhanced AC-3
Commercial name             : Dolby Digital Plus
Codec ID                    : A_EAC3
Duration                    : 2 h 10 min
Bit rate mode               : Constant
Bit rate                    : 256 kb/s
Channel(s)                  : 6 channels
Channel layout              : L R C LFE Ls Rs
Sampling rate               : 48.0 kHz
Frame rate                  : 31.250 FPS (1536 SPF)
Compression mode            : Lossy
Delay relative to video     : -5 ms
Stream size                 : 239 MiB (15%)
Title                       : Juzni vetar (2018)
Language                    : Serbian
Service kind                : Complete Main
Default                     : Yes
Forced                      : No
 
Text
ID                          : 3
Format                      : UTF-8
Codec ID                    : S_TEXT/UTF8
Codec ID/Info               : UTF-8 Plain Text
Duration                    : 1 h 14 min
Bit rate                    : 1 b/s
Count of elements           : 24
Stream size                 : 579 Bytes (0%)
Title                       : JUŽNI VETAR
Language                    : Serbian
Default                     : Yes
Forced                      : No
 
epYscVA.png
Hidden Content
You'll be able to see the hidden content once you thank this post.
zbNKcak.jpg
Hidden Content
You'll be able to see the hidden content once you thank this post.
OzSLkIg.png
6QYZ5aH.jpg

Edited by Wolf 13, 28 March 2019 - 13:10.


Thanked by 1269 Members:



0 user(s) are reading this topic

0 members, 0 guests, 0 anonymous users