Jump to content

Dobrodošli na Balkandownload.org
Tražite domaće knjige, exyu magazine, sinhronizirane crtane filmove, PC i ostale igre, strane i domaće filmove, dokumentarce, stranu i domaću muziku, itd. ? Ne morate tražiti dalje jer sve ćete to naći kod nas, uredno postavljeno i spremno za download. Osim toga registracijom možete sudjelovati u raznim postojećim temama na forumu, otvarati nove teme, sudjelovati u chatu i još mnogo toga. Ako već imaš otvoren račun, logiraj se ovde ,a ako želiš saznati zašto smo najbolji otvori novi račun i uverite se sami :)
Photo

Santa Maria della Salute (2016)


1 reply to this topic

#1
Wolf 13

Wolf 13

    Advanced Member

  • Members
  • PipPipPip
  • 426 posts
  • 33666 thanks
Santa Maria della Salute (2016) 1080p WEBrip DD5.1 x264 by Wolf
(MKV) HQ
 
chQLwiU.png
 

Please Login or Register to see this Hidden Content

 

General
Unique ID                   : 243196931703398236454030721195627609425 (0xB6F6067B0C59CA152BFF0537FD4D7D51)
Complete name               : Santa Maria della Salute (2016) 1080p WEBrip DD5.1 x264 by Wolf.mkv
Format                      : Matroska
Format version              : Version 4
File size                   : 1.61 GiB
Duration                    : 1 h 57 min
Overall bit rate            : 1 956 kb/s
Encoded date                : UTC 2019-06-16 08:02:51
Writing application         : mkvmerge v34.0.0 ('Sight and Seen') 64-bit
Writing library             : libebml v1.3.7 + libmatroska v1.5.0
 
Video
ID                          : 1
Format                      : AVC
Format/Info                 : Advanced Video Codec
Format profile              : [email protected]
Format settings             : CABAC / 4 Ref Frames
Format settings, CABAC      : Yes
Format settings, ReFrames   : 4 frames
Codec ID                    : V_MPEG4/ISO/AVC
Duration                    : 1 h 57 min
Bit rate                    : 1 700 kb/s
Width                       : 1 920 pixels
Height                      : 1 042 pixels
Display aspect ratio        : 1.85:1
Frame rate mode             : Constant
Frame rate                  : 25.000 FPS
Color space                 : YUV
Chroma subsampling          : 4:2:0
Bit depth                   : 8 bits
Scan type                   : Progressive
Bits/(Pixel*Frame)          : 0.034
Stream size                 : 1.40 GiB (87%)
Title                       : Santa Maria della Salute (2016)
Writing library             : x264 core 148 r2708 86b7198
Encoding settings           : cabac=1 / ref=2 / deblock=1:0:0 / analyse=0x3:0x113 / me=hex / subme=4 / psy=1 / psy_rd=1.00:0.00 / mixed_ref=0 / me_range=16 / chroma_me=1 / trellis=1 / 8x8dct=1 / cqm=0 / deadzone=21,11 / fast_pskip=1 / chroma_qp_offset=0 / threads=3 / lookahead_threads=1 / sliced_threads=0 / nr=0 / decimate=1 / interlaced=0 / bluray_compat=0 / constrained_intra=0 / bframes=3 / b_pyramid=2 / b_adapt=1 / b_bias=0 / direct=1 / weightb=1 / open_gop=0 / weightp=1 / keyint=250 / keyint_min=25 / scenecut=40 / intra_refresh=0 / rc_lookahead=20 / rc=2pass / mbtree=1 / bitrate=1700 / ratetol=1.0 / qcomp=0.60 / qpmin=0 / qpmax=69 / qpstep=4 / cplxblur=20.0 / qblur=0.5 / vbv_maxrate=300000 / vbv_bufsize=300000 / nal_hrd=none / filler=0 / ip_ratio=1.40 / aq=1:1.00
Language                    : Serbian
Default                     : Yes
Forced                      : No
Color range                 : Limited
Color primaries             : BT.709
Transfer characteristics    : BT.709
Matrix coefficients         : BT.709
 
Audio
ID                          : 2
Format                      : E-AC-3
Format/Info                 : Enhanced AC-3
Commercial name             : Dolby Digital Plus
Codec ID                    : A_EAC3
Duration                    : 1 h 57 min
Bit rate mode               : Constant
Bit rate                    : 256 kb/s
Channel(s)                  : 6 channels
Channel layout              : L R C LFE Ls Rs
Sampling rate               : 48.0 kHz
Frame rate                  : 31.250 FPS (1536 SPF)
Compression mode            : Lossy
Delay relative to video     : -21 ms
Stream size                 : 216 MiB (13%)
Service kind                : Complete Main
Default                     : Yes
Forced                      : No
 
epYscVA.png
Hidden Content
You'll be able to see the hidden content once you thank this post.
zbNKcak.jpg
Hidden Content
You'll be able to see the hidden content once you thank this post.
 
VNowAjQ.jpg
f8XTUX0.jpg
qCvYJgM.jpg

Edited by Wolf 13, 16 June 2019 - 14:18.


Thanked by 135 Members:

#2
kostolomac

kostolomac

    Advanced Member

  • Members
  • PipPipPip
  • 148 posts
  • 12757 thanks

Santa.Maria.Della.Salute.2016.SUBBED.720p.WEBRip.x264-NEO
 

TCmOmLd.jpg

Please Login or Register to see this Hidden Content

 

Priča o Lazi Kostiću počinje u Veneciji, pred crkvom Santa Maria della Salute, zbog koje se pjesnik u mladosti pjesmom ljutio na dužda što je za gradnju te crkve posjekao silne šume u našim krajevima. Ovo je emotivna ispovijest o najvećoj srpskoj ljubavnoj priči, o odnosu najvećeg pjesnika srpske književnosti i mlade, učene, prelijepe Lenke Dunđerski. Film nas vodi kroz život i unutrašnju borbu velikog i „drukčijeg“ čovjeka, pjesnika, prevodioca, doktora prava, novinara… U poznom dobu, Lazi će se duh Lenke Dunđerski i crkva Santa Maria della Salute među sobom preplitati i dovesti do stvaranja njegove najčuvenije pjesme. Naša priča prati čitav taj neobično dinamični život.

Hidden Content
You'll be able to see the hidden content once you thank this post.



Thanked by 33 Members:
Tolle , strahinjaworld , bobanovski , popesku , 2017zt , zoxkg , icaleptir , Iako , BakiNaselje , Myco00 , doktorigi1970 , JasminaNOVA , mirko_cilicax , goransokolovic.fr , MAXA , kibax69 , bobankos , blauer , danep , pina , chadjox , Milfir , nvdsrs , justmixy83 , burgo , Prene , nesom , Tijana1803 , liquid , salgija , micato90 , andra petak , senilni



0 user(s) are reading this topic

0 members, 0 guests, 0 anonymous users