Jump to content

Dobrodošli na Balkandownload.org
Tražite domaće knjige, exyu magazine, sinhronizirane crtane filmove, PC i ostale igre, strane i domaće filmove, dokumentarce, stranu i domaću muziku, itd. ? Ne morate tražiti dalje jer sve ćete to naći kod nas, uredno postavljeno i spremno za download. Osim toga registracijom možete sudjelovati u raznim postojećim temama na forumu, otvarati nove teme, sudjelovati u chatu i još mnogo toga. Ako već imaš otvoren račun, logiraj se ovde ,a ako želiš saznati zašto smo najbolji otvori novi račun i uverite se sami :)
Photo

Kralj Petar I (2018)


4 replies to this topic

#1
ludimilojko88

ludimilojko88

    Advanced Member

  • Members
  • PipPipPip
  • 368 posts
  • 28360 thanks

Kralj Petar I (2018)

 

 

Kralj-I.jpg

 

 

 

Režiju potpisuje Petar Ristovski a film nastaje po romanu Carape kralja Petra, Milovana Vitezovica objavljenog 1994. godine a po scenariju Mihajla Vitezovica, Vladimira Simica i Vladimira Cosica.
 
Snimanje filma trajalo je 110 dana na Staroj planini, u Valjevu, Somboru, Krupnju i Ljuboviji. Premijera je bila planirana 11. novembra 2018, ali je prolongirana premijera zbog obimnosti i vecih zahteva produkcije tokom postprodukcionog procesa. Ekipi je ostalo nekoliko snimajucih dana u Grckoj na ostrvu Krf gde bi trebalo da se snimi sama srž i ponovno radanje države Srbije posle ogromnih gubitaka, što bi trebalo da budu najvažnije i produkcijski najzahtevnije i najskuplje scene u filmu i jer nedostaju dodatna novcana sredstva za realizaciju filma koja bi se do premijere mogla nadoknaditi.
 
Završne scene filma su snimljene na ostrvu Krf 9. oktobra 2018. godine. Premijera filma održana je 5. decembra 2018. godine u Sava centru. Osim filma snimljena je i serija od deset epizoda koja ce se emitovati od 10. marta 2019. godine na Radio-televiziji Srbije.

 

Producent
Lazar Ristovski
Petar Ristovski
Branislav Srdic
 
Glavne uloge
Lazar Ristovski
Milan Kolak
Danica Ristovski
Radovan Vujovic
Ivan Vujic 
Aleksandar Vuckovic
Marko Todorovic
 
Muzika
Miodrag Cicovic
 
Dizajn zvuka
Aleksandar Protic
 
Scenografija
Aljoša Spajic
 
Kamera
Dušan Joksimovic
 
Montaža
Nenad Pirnat 
 
Supervizor montaže 
Andrija Zafranovic
 
Izdavacka kuca
Zilion film Beograd
Stefikon Grcka
RTS
Filmski centar Srbije
Filmski centar Grcke
 
Godina
2018
 
Trajanje
125 minuta
 
 
 
KRALJ-PETAR-1-FILM-mp4-thumbs-2019-04-01

 

 

 

Hidden Content
You'll be able to see the hidden content once you thank this post.


Edited by ludimilojko88, 01 April 2019 - 22:40.


Thanked by 1115 Members:

#2
BD_TV

BD_TV

    Gold Member

  • Sponsor
  • PipPipPipPipPipPip
  • 8,694 posts
  • 510620 thanks

Kralj Petar I (2018) HDRip DivX

Hidden Content
You'll be able to see the hidden content once you thank this post.



Thanked by 575 Members:

#3
BD_TV

BD_TV

    Gold Member

  • Sponsor
  • PipPipPipPipPipPip
  • 8,694 posts
  • 510620 thanks

Kralj.Petar.I.2019.720p.WEBRip.x264-WEBHD

Hidden Content
You'll be able to see the hidden content once you thank this post.

 

5kgRAd1.jpg



Thanked by 705 Members:

#4
Wolf 13

Wolf 13

    Advanced Member

  • Members
  • PipPipPip
  • 426 posts
  • 33707 thanks
Kralj Petar I (2018) 1080p HDrip DD5.1 x264 by Wolf
(MKV) HQ
 
Q3QLEWY.jpg
 

Please Login or Register to see this Hidden Content

 

General
Unique ID                   : 253025725674856550371726462417129583513 (0xBE5AFB70004A2EDFBA3BC14E755A3399)
Complete name               : Kralj Petar I (2018) 1080p HDrip DD5.1 x264 by Wolf.mkv
Format                      : Matroska
Format version              : Version 4
File size                   : 1.64 GiB
Duration                    : 2 h 6 min
Overall bit rate            : 1 855 kb/s
Encoded date                : UTC 2019-04-06 07:11:20
Writing application         : mkvmerge v32.0.0 ('Astral Progressions') 64-bit
Writing library             : libebml v1.3.7 + libmatroska v1.5.0 / Lavf58.20.100
 
Video
ID                          : 1
Format                      : AVC
Format/Info                 : Advanced Video Codec
Format profile              : [email protected]
Format settings             : CABAC / 8 Ref Frames
Format settings, CABAC      : Yes
Format settings, ReFrames   : 8 frames
Codec ID                    : V_MPEG4/ISO/AVC
Duration                    : 2 h 6 min
Bit rate                    : 1 600 kb/s
Width                       : 1 920 pixels
Height                      : 970 pixels
Display aspect ratio        : 2.000
Frame rate mode             : Constant
Frame rate                  : 25.000 FPS
Color space                 : YUV
Chroma subsampling          : 4:2:0
Bit depth                   : 8 bits
Scan type                   : Progressive
Bits/(Pixel*Frame)          : 0.034
Stream size                 : 1.42 GiB (86%)
Title                       : Kralj Petar I (2018)
Writing library             : x264 core 157 r2935 545de2f
Encoding settings           : cabac=1 / ref=8 / deblock=1:-1:-1 / analyse=0x3:0x133 / me=umh / subme=9 / psy=1 / psy_rd=1.00:0.15 / mixed_ref=1 / me_range=16 / chroma_me=1 / trellis=2 / 8x8dct=1 / cqm=0 / deadzone=21,11 / fast_pskip=1 / chroma_qp_offset=-3 / threads=6 / lookahead_threads=1 / sliced_threads=0 / nr=0 / decimate=1 / interlaced=0 / bluray_compat=0 / constrained_intra=0 / bframes=3 / b_pyramid=2 / b_adapt=2 / b_bias=0 / direct=3 / weightb=1 / open_gop=0 / weightp=2 / keyint=250 / keyint_min=25 / scenecut=40 / intra_refresh=0 / rc_lookahead=60 / rc=2pass / mbtree=1 / bitrate=1600 / ratetol=1.0 / qcomp=0.60 / qpmin=0 / qpmax=69 / qpstep=4 / cplxblur=20.0 / qblur=0.5 / vbv_maxrate=300000 / vbv_bufsize=300000 / nal_hrd=none / filler=0 / ip_ratio=1.40 / aq=1:1.00
Language                    : Serbian
Default                     : Yes
Forced                      : No
Color range                 : Limited
Color primaries             : BT.709
Transfer characteristics    : BT.709
Matrix coefficients         : BT.709
 
Audio
ID                          : 2
Format                      : E-AC-3
Format/Info                 : Enhanced AC-3
Commercial name             : Dolby Digital Plus
Codec ID                    : A_EAC3
Duration                    : 2 h 6 min
Bit rate mode               : Constant
Bit rate                    : 256 kb/s
Channel(s)                  : 6 channels
Channel layout              : L R C LFE Ls Rs
Sampling rate               : 48.0 kHz
Frame rate                  : 31.250 FPS (1536 SPF)
Compression mode            : Lossy
Delay relative to video     : -5 ms
Stream size                 : 232 MiB (14%)
Title                       : Kralj Petar I (2018)
Language                    : Serbian
Service kind                : Complete Main
Default                     : Yes
Forced                      : No
 
epYscVA.png
Hidden Content
You'll be able to see the hidden content once you thank this post.
zbNKcak.jpg
Hidden Content
You'll be able to see the hidden content once you thank this post.
qR45qol.jpg
JN9Fhig.jpg


Thanked by 888 Members:

#5
kostolomac

kostolomac

    Advanced Member

  • Members
  • PipPipPip
  • 148 posts
  • 12775 thanks

Kralj.Petar.I.2018.720p.WEBRip.x264-NEO

 

Hidden Content
You'll be able to see the hidden content once you thank this post.



Thanked by 54 Members:
anaijelena , Čovek iz senke , zwengla , stilincic , milica262 , Paket , krlle , james12320 , mladjobojana , kiky , lenabgyu , Sceko , milanns , Starmo , bogibond , direhard , Nenad71088 , popesku , kriglaaa , gor , slobodan89kv , Ivanpa92 , mr.robot , legijalegija , BakiNaselje , trampi , mecka.car , mirko_cilicax , icaleptir , denimiko1 , Deth93 , bpeters2009 , nfnst , blauer , Jokeratomic , burgo , Grobar , dzimislav leone , justmixy83 , andra petak , Tracker , fritz200300 , beograd1960' , senilni , Prene , mitrevski_a , Starfighter2 , PEKIPEKICA , Urosito , danep , nnnxsz , mimi01 , krabulja , kindergirl



0 user(s) are reading this topic

0 members, 0 guests, 0 anonymous users