Jump to content

Dobrodošli na Balkandownload.org
Tražite domaće knjige, exyu magazine, sinhronizirane crtane filmove, PC i ostale igre, strane i domaće filmove, dokumentarce, stranu i domaću muziku, itd. ? Ne morate tražiti dalje jer sve ćete to naći kod nas, uredno postavljeno i spremno za download. Osim toga registracijom možete sudjelovati u raznim postojećim temama na forumu, otvarati nove teme, sudjelovati u chatu i još mnogo toga. Ako već imaš otvoren račun, logiraj se ovde ,a ako želiš saznati zašto smo najbolji otvori novi račun i uverite se sami :)
Photo

Balkanska međa (2019) SRPSKA VERZIJA


7 replies to this topic

#1
BD_TV

BD_TV

    Gold Member

  • Sponsor
  • PipPipPipPipPipPip
  • 8,683 posts
  • 508846 thanks

Balkanska međa (2019) SR 720p WEB-DL x264 - BD4YU

 

srpska verzija filma - titlovi samo tamo gde je potrebno

 

5gFed0L.jpg

Please Login or Register to see this Hidden Content

Glumci: Aleksandar Radojičić, Milena Radulović, Miloš Biković, Miodrag Radonjić, Anton Pampušni
Datum premijere: 28 mar, 2019
Žanr: Drama
Orginalni naziv: Balkanska međa
 
Sinopsis
1999 godina. NATO bombarduje Srbiju i ostavlja na milost i nemilost pokrajinu Kosovo albanskim terorističkim grupama. Rusiji se daje mala uloga u rješavanju kosovskog sukoba, a aerodrom Slatina pada pod kontrolu Smuka – komandanta albanske terorističke grupe. Ruski izviđači Andrej Šatalov i Bek Ethoev, po uputstvima vojnog rukovodstva dobijaju zadatak da sa malim odredom sprovedu smjelu operaciju zauzimanja aerodroma Slatina.
 
7Pp7rSE.jpg
 
 
preuzimanje (kliknite na "thanks" da se linkovi otvore):
Hidden Content
You'll be able to see the hidden content once you thank this post.



Thanked by 2767 Members:

#2
BD_TV

BD_TV

    Gold Member

  • Sponsor
  • PipPipPipPipPipPip
  • 8,683 posts
  • 508846 thanks

Balkanska medja (2019) Srpska Verzija WEB-DL x264 - BD4YU

 

3fw4GSL.jpg

 

 

preuzimanje:

Hidden Content
You'll be able to see the hidden content once you thank this post.



Thanked by 953 Members:

#3
BD_TV

BD_TV

    Gold Member

  • Sponsor
  • PipPipPipPipPipPip
  • 8,683 posts
  • 508846 thanks

Balkanska međa (2019) Srpska Verzija 1080p WEB-DL x264 - BD4YU

 

7vMTkPy.jpg

 

 

preuzimanje:

Hidden Content
You'll be able to see the hidden content once you thank this post.



Thanked by 817 Members:

#4
BD_TV

BD_TV

    Gold Member

  • Sponsor
  • PipPipPipPipPipPip
  • 8,683 posts
  • 508846 thanks

Balkanska međa (2019) Srpska Verzija RERIP 1080p WEB-DL x264 - BD4YU

 

evo novog ripa 1080p verzije u mp4 formatu ako neko ima problem sa reprodukovanjem mkv verzije

 

Fg70fex.jpg

 

preuzimanje

Hidden Content
You'll be able to see the hidden content once you thank this post.



Thanked by 815 Members:

#5
Wolf 13

Wolf 13

    Advanced Member

  • Members
  • PipPipPip
  • 426 posts
  • 33609 thanks
Balkanska međa (2019) 1080p HC WEBrip DD5.1 x264 by Wolf
(MKV)
 
phvJENT.jpg
 

Please Login or Register to see this Hidden Content

 

General
Unique ID                   : 264915862007126977235550762154007576402 (0xC74CF06B5D94A50418E680F530C5BF52)
Complete name               : Balkanska međa (2019) 1080p HC WEBrip DD5.1 x264 by Wolf.mkv
Format                      : Matroska
Format version              : Version 4
File size                   : 1.83 GiB
Duration                    : 2 h 21 min
Overall bit rate            : 1 856 kb/s
Encoded date                : UTC 2019-05-09 15:44:21
Writing application         : mkvmerge v33.1.0 ('Primrose') 64-bit
Writing library             : libebml v1.3.7 + libmatroska v1.5.0
 
Video
ID                          : 1
Format                      : AVC
Format/Info                 : Advanced Video Codec
Format profile              : [email protected]
Format settings             : CABAC / 8 Ref Frames
Format settings, CABAC      : Yes
Format settings, ReFrames   : 8 frames
Codec ID                    : V_MPEG4/ISO/AVC
Duration                    : 2 h 21 min
Bit rate                    : 1 600 kb/s
Width                       : 1 920 pixels
Height                      : 804 pixels
Display aspect ratio        : 2.40:1
Frame rate mode             : Constant
Frame rate                  : 29.970 (30000/1001) FPS
Color space                 : YUV
Chroma subsampling          : 4:2:0
Bit depth                   : 8 bits
Scan type                   : Progressive
Bits/(Pixel*Frame)          : 0.035
Stream size                 : 1.58 GiB (86%)
Title                       : Balkanskiy rubezh (2019)
Writing library             : x264 core 157 r2935 545de2f
Encoding settings           : cabac=1 / ref=8 / deblock=1:-1:-1 / analyse=0x3:0x133 / me=umh / subme=9 / psy=1 / psy_rd=1.00:0.15 / mixed_ref=1 / me_range=16 / chroma_me=1 / trellis=2 / 8x8dct=1 / cqm=0 / deadzone=21,11 / fast_pskip=1 / chroma_qp_offset=-3 / threads=6 / lookahead_threads=1 / sliced_threads=0 / nr=0 / decimate=1 / interlaced=0 / bluray_compat=0 / constrained_intra=0 / bframes=3 / b_pyramid=2 / b_adapt=2 / b_bias=0 / direct=3 / weightb=1 / open_gop=0 / weightp=2 / keyint=300 / keyint_min=30 / scenecut=40 / intra_refresh=0 / rc_lookahead=60 / rc=2pass / mbtree=1 / bitrate=1600 / ratetol=1.0 / qcomp=0.60 / qpmin=0 / qpmax=69 / qpstep=4 / cplxblur=20.0 / qblur=0.5 / vbv_maxrate=300000 / vbv_bufsize=300000 / nal_hrd=none / filler=0 / ip_ratio=1.40 / aq=1:1.00
Language                    : Russian
Default                     : Yes
Forced                      : No
Color range                 : Limited
Color primaries             : BT.709
Transfer characteristics    : BT.709
Matrix coefficients         : BT.709
 
Audio
ID                          : 2
Format                      : E-AC-3
Format/Info                 : Enhanced AC-3
Commercial name             : Dolby Digital Plus
Codec ID                    : A_EAC3
Duration                    : 2 h 21 min
Bit rate mode               : Constant
Bit rate                    : 256 kb/s
Channel(s)                  : 6 channels
Channel layout              : L R C LFE Ls Rs
Sampling rate               : 48.0 kHz
Frame rate                  : 31.250 FPS (1536 SPF)
Compression mode            : Lossy
Stream size                 : 259 MiB (14%)
Title                       : Balkanska međa (2019)
Language                    : Serbian
Service kind                : Complete Main
Default                     : Yes
Forced                      : No
 
epYscVA.png
Hidden Content
You'll be able to see the hidden content once you thank this post.
zbNKcak.jpg
Hidden Content
You'll be able to see the hidden content once you thank this post.
 
RLorkCp.jpg
LJIS78R.jpg


Thanked by 601 Members:

#6
Wolf 13

Wolf 13

    Advanced Member

  • Members
  • PipPipPip
  • 426 posts
  • 33609 thanks
The Balkan Line (2019) 1080p BRrip DD5.1 x264 by Wolf
(MKV)
 
phvJENT.jpg
 

Please Login or Register to see this Hidden Content

 

 

General
Unique ID                   : 17348642810940449553042066229037353580 (0xD0D3A2127B566A4D6E21580F873CA6C)
Complete name               : The Balkan Line (2019) 1080p BRrip DD5.1 x264 by Wolf.mkv
Format                      : Matroska
Format version              : Version 4
File size                   : 1.96 GiB
Duration                    : 2 h 31 min
Overall bit rate            : 1 857 kb/s
Encoded date                : UTC 2019-08-07 15:11:20
Writing application         : mkvmerge v35.0.0 ('All The Love In The World') 64-bit
Writing library             : libebml v1.3.9 + libmatroska v1.5.2
 
Video
ID                          : 1
Format                      : AVC
Format/Info                 : Advanced Video Codec
Format profile              : [email protected]
Format settings             : CABAC / 16 Ref Frames
Format settings, CABAC      : Yes
Format settings, ReFrames   : 16 frames
Codec ID                    : V_MPEG4/ISO/AVC
Duration                    : 2 h 31 min
Bit rate                    : 1 600 kb/s
Width                       : 1 920 pixels
Height                      : 800 pixels
Display aspect ratio        : 2.40:1
Frame rate mode             : Constant
Frame rate                  : 23.976 (24000/1001) FPS
Color space                 : YUV
Chroma subsampling          : 4:2:0
Bit depth                   : 8 bits
Scan type                   : Progressive
Bits/(Pixel*Frame)          : 0.043
Stream size                 : 1.69 GiB (86%)
Title                       : The Balkan Line (2019)
Writing library             : x264 core 157 r2935 545de2f
Encoding settings           : cabac=1 / ref=16 / deblock=1:-1:-1 / analyse=0x3:0x133 / me=umh / subme=10 / psy=1 / psy_rd=1.00:0.15 / mixed_ref=1 / me_range=24 / chroma_me=1 / trellis=2 / 8x8dct=1 / cqm=0 / deadzone=21,11 / fast_pskip=1 / chroma_qp_offset=-3 / threads=6 / lookahead_threads=1 / sliced_threads=0 / nr=0 / decimate=1 / interlaced=0 / bluray_compat=0 / constrained_intra=0 / bframes=8 / b_pyramid=2 / b_adapt=2 / b_bias=0 / direct=3 / weightb=1 / open_gop=0 / weightp=2 / keyint=240 / keyint_min=24 / scenecut=40 / intra_refresh=0 / rc_lookahead=60 / rc=2pass / mbtree=1 / bitrate=1600 / ratetol=1.0 / qcomp=0.60 / qpmin=0 / qpmax=69 / qpstep=4 / cplxblur=20.0 / qblur=0.5 / vbv_maxrate=300000 / vbv_bufsize=300000 / nal_hrd=none / filler=0 / ip_ratio=1.40 / aq=1:1.00
Language                    : Russian
Default                     : Yes
Forced                      : No
Color range                 : Limited
Color primaries             : BT.709
Transfer characteristics    : BT.709
Matrix coefficients         : BT.709
 
Audio
ID                          : 2
Format                      : E-AC-3
Format/Info                 : Enhanced AC-3
Commercial name             : Dolby Digital Plus
Codec ID                    : A_EAC3
Duration                    : 2 h 31 min
Bit rate mode               : Constant
Bit rate                    : 256 kb/s
Channel(s)                  : 6 channels
Channel layout              : L R C LFE Ls Rs
Sampling rate               : 48.0 kHz
Frame rate                  : 31.250 FPS (1536 SPF)
Compression mode            : Lossy
Delay relative to video     : -5 ms
Stream size                 : 277 MiB (14%)
Title                       : The Balkan Line (2019)
Language                    : Russian
Service kind                : Complete Main
Default                     : Yes
Forced                      : No
 
Text
ID                          : 3
Format                      : UTF-8
Codec ID                    : S_TEXT/UTF8
Codec ID/Info               : UTF-8 Plain Text
Duration                    : 2 h 23 min
Bit rate                    : 22 b/s
Count of elements           : 783
Stream size                 : 24.0 KiB (0%)
Title                       : BALKANSKA  MEĐA
Language                    : Serbian
Default                     : Yes
Forced                      : No
 
epYscVA.png
Hidden Content
You'll be able to see the hidden content once you thank this post.
zbNKcak.jpg
Hidden Content
You'll be able to see the hidden content once you thank this post.
 
xMagd4B.jpg
IPlDKV1.jpg

Edited by Wolf 13, 11 August 2019 - 16:22.


Thanked by 217 Members:

#7
kostolomac

kostolomac

    Advanced Member

  • Members
  • PipPipPip
  • 148 posts
  • 12728 thanks
Balkanska.Medja.2019.UNCUT.720p.BluRay.x264-NEO
 
Adk9S0L.jpg
 


Please Login or Register to see this Hidden Content

 
 

Please Login or Register to see this Hidden Content



Thanked by 103 Members:

#8
kostolomac

kostolomac

    Advanced Member

  • Members
  • PipPipPip
  • 148 posts
  • 12728 thanks
Balkanska.Medja.2019.UNCUT.1080p.BluRay.x264-NEO

Adk9S0L.jpg

Please Login or Register to see this Hidden Content

Hidden Content
You'll be able to see the hidden content once you thank this post.


Thanked by 189 Members:



0 user(s) are reading this topic

0 members, 0 guests, 0 anonymous users