Jump to content

Dobrodošli na Balkandownload.org
Tražite domaće knjige, exyu magazine, sinhronizirane crtane filmove, PC i ostale igre, strane i domaće filmove, dokumentarce, stranu i domaću muziku, itd. ? Ne morate tražiti dalje jer sve ćete to naći kod nas, uredno postavljeno i spremno za download. Osim toga registracijom možete sudjelovati u raznim postojećim temama na forumu, otvarati nove teme, sudjelovati u chatu i još mnogo toga. Ako već imaš otvoren račun, logiraj se ovde ,a ako želiš saznati zašto smo najbolji otvori novi račun i uverite se sami :)
Photo

Cuvar plaze u zimskom periodu (1976)


3 replies to this topic

#1
MaliGrizeBeton

MaliGrizeBeton

    Silver Member

  • Members
  • PipPipPipPipPip
  • 2,524 posts
  • 22582 thanks

Cuvar plaže u zimskom periodu (1976)

 

 



Thanked by 24 Members:
seados , krmkoboy , Bontonko , bilavs1963 , kanki , stanojkass , rile1972 , bbcp , sturm , vajtaun , kapetanovici , caballero , aleksandar0475 , bataraka , Dellija19 , letmispik , JANAIEMA , dalek , maxmanus011 , zlatcom , CEBEP , javadpolytechnic , leonardo39 , onileve

#2
Biotloneta

Biotloneta

    Bronze Member

  • Moderator
  • PipPipPipPip
  • 1,403 posts
  • 64523 thanks
  • LocationRobija
               Čuvar plaže u zimskom Periodu (1976)
 
                                                        1002_poster-1.jpg
 

Please Login or Register to see this Hidden Content

 
Opis: Mladic koji je odrastao u atmosferi promašenog braka svojih roditelja želi da pode svojim putem u život. Završio je školu ali ona mu ne pruža šansu da se zaposli, pa zato prihvata posao cuvara plaže u zimskom periodu. Oženi se devojkom koju voli, verujuci da ljubav može da prebrodi sve teškoce. Ubrzo ga žena napušta, otac mu umire i opet se nalazi pred novim pocetkom, ali sada je opterecen gorcinom.
Odrastao u atmosferi promašenog braka svojih roditelja, mladic želi da pode svojim putem u život. Škola koju je završio ne pruža mu šanse da se zaposli, pa zato prihvati mesto cuvara plaže u zimskom periodu. Oženi se devojkom koju voli, verujuci da ljubav može da prebrodi sve teškoce. Ubrzo uvidi da su i njegovi roditelji jednom poletno poceli, ali da su taj polet ugušile životne nedace. Žena ga napusti, otac mu umire i mladic se našao pred novim pocetkom, ali sada opterecen gorcinom.
 
Uloge:
Irfan Mensur Dragan Pašanovic
Gordana Kosanovic Ljubica Miladinovic
Danilo Bata Stojkovic Milovan Pašanovic, Draganov otac
Mira Banjac Spasenija Pašanovic, Draganova majka
Dara Calenic Draganova tetka
Velimir Bata Živojinovic Ljubicin otac
Pavle Vuisic Buda
Ružica Sokic udovica
Faruk Begoli Draganov prijatelj
Ana Krasojevic Ljubicina majka
Janez Vrhovec šef orkestra
Dragomir Felba šofer
Bora Todorovic Petar Dunjic
Dušan Janicijevic filmski reditelj
Milivoje Tomic šef perionice
Jovanka Kotlajic Gošca na svadbi
Ilija Bašic Covek koji sedi za šankom
Jovan Nikcevic Covek koji dolazi s poklonom u restoran (kao J. Mikcevic)
 
Režija: Goran Paskaljevic
 
Žanr: Drama
 
i6bfLKN.jpg

IME : Čuvar plaže u zimskom periodu (1976)
FORMAT : MPEG-4  –⮞  738 Kbps
VELIČINA : 443 MiB  –⮞  1h 24min 1s 840ms
 
VIDEO : AVC  –⮞  640 Kbps
REZOLUCIJA : 640 x 464 (1.379)  –⮞  25.000 fps
 
AUDIO : AAC  –⮞  96,0 Kbps
TON SISTEM : 2 Kanala  –⮞  48,0 KHz

uptobox4cf5d.jpg
 
Hidden Content
You'll be able to see the hidden content once you thank this post.

  tumblr_o89ik1YZEl1ssbvp5o1_500.gif

 

Za repload mrtvih linkova (domaćih filmova) ili želje za postavljanjem nekog filma kog ne možete da pronađete, obratite mi se putem privatne poruke.


Thanked by 55 Members:
pametnipotemkin , bobankos , nituliM , Jorgos , seados , krmkoboy , zarkoe ekmedzic , zorandju , adore.roizy , liquid , komputikisto , ultimate08 , dodge , jockey , skrbiczoran , dijana31 , bilavs1963 , Bontonko , Nebojsa1985 , miki 52 , chefko , indukcia , burgo , megastraus , kanki , popayko , rafael13 , janbelo , pekonja , zlatcom , Jagoda211724 , rile1972 , BojanWW , fanSte_97 , vajtaun , nocniportir , dhl , barra64 , radonja86 , Ismet68 , nenad72yu , b50andi , danijeladanijel , sturm , Kruno321 , pa92 , mikula11 , Stanari , goraneo , epikur69 , gocko5 , tinematic16 , gorza , Zelenac1 , peropero

#3
Wolf 13

Wolf 13

    Advanced Member

  • Members
  • PipPipPip
  • 426 posts
  • 33403 thanks
Cuvar plaze u zimskom periodu (1976) DVDrip DD5.1 x264 by Wolf
(MKV)
 
AfEJbiM.jpg
 

Please Login or Register to see this Hidden Content

 

General
Unique ID                   : 122756973532263866391094435094240920233 (0x5C5A221434A5D494ADFA5527508B82A9)
Complete name               : Cuvar plaze u zimskom periodu (1976) DVDrip DD5.1 x264 by Wolf.mkv
Format                      : Matroska
Format version              : Version 4
File size                   : 1.09 GiB
Duration                    : 1 h 24 min
Overall bit rate            : 1 856 kb/s
Encoded date                : UTC 2019-04-28 16:50:09
Writing application         : mkvmerge v33.1.0 ('Primrose') 64-bit
Writing library             : libebml v1.3.7 + libmatroska v1.5.0 / Lavf58.20.100
 
Video
ID                          : 1
Format                      : AVC
Format/Info                 : Advanced Video Codec
Format profile              : [email protected]
Format settings             : CABAC / 16 Ref Frames
Format settings, CABAC      : Yes
Format settings, ReFrames   : 16 frames
Codec ID                    : V_MPEG4/ISO/AVC
Duration                    : 1 h 24 min
Bit rate                    : 1 600 kb/s
Width                       : 714 pixels
Height                      : 476 pixels
Display aspect ratio        : 16:9
Original display aspect rat : 16:10
Frame rate mode             : Constant
Frame rate                  : 25.000 FPS
Color space                 : YUV
Chroma subsampling          : 4:2:0
Bit depth                   : 8 bits
Scan type                   : Progressive
Bits/(Pixel*Frame)          : 0.188
Stream size                 : 962 MiB (86%)
Title                       : Cuvar plaze u zimskom periodu (1976)
Writing library             : x264 core 157 r2935 545de2f
Encoding settings           : cabac=1 / ref=16 / deblock=1:-1:-1 / analyse=0x3:0x133 / me=umh / subme=10 / psy=1 / psy_rd=1.00:0.15 / mixed_ref=1 / me_range=24 / chroma_me=1 / trellis=2 / 8x8dct=1 / cqm=0 / deadzone=21,11 / fast_pskip=1 / chroma_qp_offset=-3 / threads=6 / lookahead_threads=1 / sliced_threads=0 / nr=0 / decimate=1 / interlaced=0 / bluray_compat=0 / constrained_intra=0 / bframes=8 / b_pyramid=2 / b_adapt=2 / b_bias=0 / direct=3 / weightb=1 / open_gop=0 / weightp=2 / keyint=250 / keyint_min=25 / scenecut=40 / intra_refresh=0 / rc_lookahead=60 / rc=2pass / mbtree=1 / bitrate=1600 / ratetol=1.0 / qcomp=0.60 / qpmin=0 / qpmax=69 / qpstep=4 / cplxblur=20.0 / qblur=0.5 / vbv_maxrate=300000 / vbv_bufsize=300000 / nal_hrd=none / filler=0 / ip_ratio=1.40 / aq=1:1.00
Language                    : Serbian
Default                     : Yes
Forced                      : No
Color range                 : Limited
Color primaries             : BT.601 PAL
Transfer characteristics    : BT.709
Matrix coefficients         : BT.601
 
Audio
ID                          : 2
Format                      : E-AC-3
Format/Info                 : Enhanced AC-3
Commercial name             : Dolby Digital Plus
Codec ID                    : A_EAC3
Duration                    : 1 h 24 min
Bit rate mode               : Constant
Bit rate                    : 256 kb/s
Channel(s)                  : 6 channels
Channel layout              : L R C LFE Ls Rs
Sampling rate               : 48.0 kHz
Frame rate                  : 31.250 FPS (1536 SPF)
Compression mode            : Lossy
Delay relative to video     : -15 ms
Stream size                 : 154 MiB (14%)
Title                       : Cuvar plaze u zimskom periodu (1976)
Language                    : Serbian
Service kind                : Complete Main
Default                     : Yes
Forced                      : No
 
epYscVA.png
Hidden Content
You'll be able to see the hidden content once you thank this post.
zbNKcak.jpg
Hidden Content
You'll be able to see the hidden content once you thank this post.
 
YDoqx3J.png
B9ZaeHy.jpg


Thanked by 53 Members:
dejanbizon , debelodete , seados , dedamiro , krmkoboy , spada , zorandju , danep , kormi17 , goraneo , kccobcco , burgo , dodge , skrbiczoran , vajtaun , SaleXieri , rile1972 , Anki , cipiripi , icaleptir , Bontonko , mspumpe , balkanac011 , nuke , hectrix , epikur69 , predrak , jopesini , Petronije11 , Homme , draganik , dzbunj , KIXX , Lykos Greece , GORANJ79 , tonitaxi , Nebojsa1985 , Jokso , Zelenac1 , tiho666 , beograd1960' , tesseka48 , krkvis , deZorzo , jumanjinz , fffunkymannn , dzogani , alexxxxa , miki 52 , dzimislav leone , ss_semi , mikula11 , gbarac

#4
Zoran_

Zoran_

    Gold Member

  • VIP
  • PipPipPipPipPipPip
  • 5,984 posts
  • 149254 thanks
Cuvar plaze u zimskom periodu (1976)
 
 
ZEub7FE.png
 
Su6Ksi6.jpg
 

Please Login or Register to see this Hidden Content

 
Odrastao u atmosferi promašenog braka svojih roditelja, mladic želi da pode svojim putem u život. Škola koju je završio ne pruža mu šanse da se zaposli, pa zato prihvati mesto cuvara plaže u zimskom periodu. Oženi se devojkom koju voli, verujuci da ljubav može da prebrodi sve teškoce. Ubrzo uvidi da su i njegovi roditelji jednom poletno poceli, ali da su taj polet ugušile životne nedace. Žena ga napusti, otac mu umire i mladic se našao pred novim pocetkom, ali sada opterecen gorcinom.
 
qv5bd8b969.png
 
v35qjHV.gif
 
V4GRJZD.jpg
 
Oets6ur.gif
 
Cuvar plaze u zimskom periodu (1976) 720p.HDRip.x264.mkv
 
SFYUbuP.jpg
 
Hidden Content
You'll be able to see the hidden content once you thank this post.

Molbe za moje linkove, šaljite na PP.

 

Zabranjeno je kopiranje mojih linkova,reupload i postavljanje na druge forume!


Thanked by 47 Members:
garovix , dzigili , Hummer , dejanbizon , debelodete , kamelijera , vlast69 , dupin , goransokolovic.fr , AsheFawkes , nikola.kuzelov , imarkovic , rade.com , goraneo , damirprc , zoran48 , rile1972 , fffunkymannn , opetopet , zorandju , peropero , sweep27 , burgo , ivory , dzogani , KIXX , GORANJ79 , gbarac , oto1 , Zelenac1 , balkanac011 , i_023 , blauer , Gorolomac , epikur69 , MacAir , denimiko1 , Franci , beograd1960' , zamah1 , Jokso , komputikisto , Lykos Greece , kormi17 , Biotloneta , SilentStorm666 , papak3333



0 user(s) are reading this topic

0 members, 0 guests, 0 anonymous users