Jump to content

Dobrodošli na Balkandownload.org
Tražite domaće knjige, exyu magazine, sinhronizirane crtane filmove, PC i ostale igre, strane i domaće filmove, dokumentarce, stranu i domaću muziku, itd. ? Ne morate tražiti dalje jer sve ćete to naći kod nas, uredno postavljeno i spremno za download. Osim toga registracijom možete sudjelovati u raznim postojećim temama na forumu, otvarati nove teme, sudjelovati u chatu i još mnogo toga. Ako već imaš otvoren račun, logiraj se ovde ,a ako želiš saznati zašto smo najbolji otvori novi račun i uverite se sami :)
Photo

Nož (1999)

Nož Noz

3 replies to this topic

#1
Zoran_

Zoran_

    Gold Member

  • VIP
  • PipPipPipPipPipPip
  • 5,990 posts
  • 149801 thanks

Noz (1999)


Noz1999.png

imdb6.jpg
 

Please Login or Register to see this Hidden Content

Film po hit romanu Vuka Draskovica koji kroz sudbinu svojih likova prica pricu o sudbini nacije, njenim korenima i zlu koje sledi kao prokletstvo kroz vekove. Glavni lik filma je Alija Osmanovic, tj. Ilija Jugovic, koji pokusava da pronade ko je i kakvi su mu koreni i u tom procesu otkriva nesto mnogo dublje i suptilnije. Otkriva i zlo koje ga vuce u potragu za sopstvenim identitetom bez obzira kako se zovu njegovi preci. Noz je ljubavni triler sa epskim elementima.


Molbe za moje linkove, šaljite na PP.

 

Zabranjeno je kopiranje mojih linkova,reupload i postavljanje na druge forume!


Thanked by 110 Members:

#2
Tobacco Road

Tobacco Road

    The Warez GOD

  • Tobacco
  • PipPipPipPipPipPipPipPipPipPip
  • 23,348 posts
  • 995965 thanks
  • Locationscrls

Nož (1999) 720p x264

 

 

GJeoCx9.jpg

 

 

 

Download

Hidden Content
You'll be able to see the hidden content once you thank this post.


 

 

Kako skinuti nesto sa Balkandownload-a?

www.slideshare.net/bd4yu/kako-skidati-fajlove-sa-balkan-download-a

Kako da pronadjete zeljeni sadrzaj na forumu? 

www.balkandownload.org/topic/40428-kako-pronaci-zeljeni-sadrzaj-na-forumu/

Najmračniji krugovi pakla su rezervisani za one koji u vremenima moralne krize ostanu neutralni i suzdržani -Dante Alighieri


Thanked by 204 Members:

#3
Wolf 13

Wolf 13

    Advanced Member

  • Members
  • PipPipPip
  • 426 posts
  • 33612 thanks
Noz (1999) DVDrip DD5.1 x264 by Wolf
(MKV)  HQ
 
RuI8uUQ.jpg
 

Please Login or Register to see this Hidden Content

 

 

General
Unique ID                   : 315184344872380639821232828193758766840 (0xED1E4BF9B8648B8182A0B5E7F7C3E6F8)
Complete name               : Noz (1999) DVDrip DD5.1 x264 by Wolf.mkv
Format                      : Matroska
Format version              : Version 4
File size                   : 1.69 GiB
Duration                    : 2 h 10 min
Overall bit rate            : 1 857 kb/s
Encoded date                : UTC 2019-04-02 15:49:01
Writing application         : mkvmerge v32.0.0 ('Astral Progressions') 64-bit
Writing library             : libebml v1.3.7 + libmatroska v1.5.0 / Lavf58.20.100
 
Video
ID                          : 1
Format                      : AVC
Format/Info                 : Advanced Video Codec
Format profile              : [email protected]
Format settings             : CABAC / 16 Ref Frames
Format settings, CABAC      : Yes
Format settings, ReFrames   : 16 frames
Codec ID                    : V_MPEG4/ISO/AVC
Duration                    : 2 h 10 min
Bit rate                    : 1 600 kb/s
Width                       : 702 pixels
Height                      : 476 pixels
Display aspect ratio        : 16:9
Original display aspect rat : 16:10
Frame rate mode             : Constant
Frame rate                  : 25.000 FPS
Color space                 : YUV
Chroma subsampling          : 4:2:0
Bit depth                   : 8 bits
Scan type                   : Progressive
Bits/(Pixel*Frame)          : 0.192
Stream size                 : 1.46 GiB (86%)
Title                       : Noz (1999)
Writing library             : x264 core 157 r2935 545de2f
Encoding settings           : cabac=1 / ref=16 / deblock=1:-1:-1 / analyse=0x3:0x133 / me=umh / subme=10 / psy=1 / psy_rd=1.00:0.15 / mixed_ref=1 / me_range=24 / chroma_me=1 / trellis=2 / 8x8dct=1 / cqm=0 / deadzone=21,11 / fast_pskip=1 / chroma_qp_offset=-3 / threads=6 / lookahead_threads=1 / sliced_threads=0 / nr=0 / decimate=1 / interlaced=0 / bluray_compat=0 / constrained_intra=0 / bframes=8 / b_pyramid=2 / b_adapt=2 / b_bias=0 / direct=3 / weightb=1 / open_gop=0 / weightp=2 / keyint=250 / keyint_min=25 / scenecut=40 / intra_refresh=0 / rc_lookahead=60 / rc=2pass / mbtree=1 / bitrate=1600 / ratetol=1.0 / qcomp=0.60 / qpmin=0 / qpmax=69 / qpstep=4 / cplxblur=20.0 / qblur=0.5 / vbv_maxrate=300000 / vbv_bufsize=300000 / nal_hrd=none / filler=0 / ip_ratio=1.40 / aq=1:1.00
Language                    : Serbian
Default                     : Yes
Forced                      : No
Color range                 : Limited
Color primaries             : BT.601 PAL
Transfer characteristics    : BT.709
Matrix coefficients         : BT.601
 
Audio
ID                          : 2
Format                      : E-AC-3
Format/Info                 : Enhanced AC-3
Commercial name             : Dolby Digital Plus
Codec ID                    : A_EAC3
Duration                    : 2 h 10 min
Bit rate mode               : Constant
Bit rate                    : 256 kb/s
Channel(s)                  : 6 channels
Channel layout              : L R C LFE Ls Rs
Sampling rate               : 48.0 kHz
Frame rate                  : 31.250 FPS (1536 SPF)
Compression mode            : Lossy
Delay relative to video     : -5 ms
Stream size                 : 239 MiB (14%)
Title                       : Noz (1999)
Language                    : Serbian
Service kind                : Complete Main
Default                     : Yes
Forced                      : No
 
epYscVA.png
Hidden Content
You'll be able to see the hidden content once you thank this post.
 
SXDuqxa.png
gevnNhN.jpg

Edited by Wolf 13, 02 April 2019 - 19:29.


Thanked by 123 Members:

#4
Zoran_

Zoran_

    Gold Member

  • VIP
  • PipPipPipPipPipPip
  • 5,990 posts
  • 149801 thanks
Noz (1999)
 
 
Noz1999.png
 
imdb6.jpg
 

Please Login or Register to see this Hidden Content

 
Film po hit romanu Vuka Draskovica koji kroz sudbinu svojih likova prica pricu o sudbini nacije, njenim korenima i zlu koje sledi kao prokletstvo kroz vekove. Glavni lik filma je Alija Osmanovic, tj. Ilija Jugovic, koji pokusava da pronade ko je i kakvi su mu koreni i u tom procesu otkriva nesto mnogo dublje i suptilnije. Otkriva i zlo koje ga vuce u potragu za sopstvenim identitetom bez obzira kako se zovu njegovi preci. Noz je ljubavni triler sa epskim elementima.
 
05u2pscpt99.png
 
ev8nyVC.gif
 
kVObEZB.jpg
 
downloade0cdd.gif
 
Noz (1999) DVDRip.x264.mkv
 
SFYUbuP.jpg
 
Hidden Content
You'll be able to see the hidden content once you thank this post.

Molbe za moje linkove, šaljite na PP.

 

Zabranjeno je kopiranje mojih linkova,reupload i postavljanje na druge forume!


Thanked by 80 Members:



0 user(s) are reading this topic

0 members, 0 guests, 0 anonymous users