Jump to content

Dobrodošli na Balkandownload.org
Tražite domaće knjige, exyu magazine, sinhronizirane crtane filmove, PC i ostale igre, strane i domaće filmove, dokumentarce, stranu i domaću muziku, itd. ? Ne morate tražiti dalje jer sve ćete to naći kod nas, uredno postavljeno i spremno za download. Osim toga registracijom možete sudjelovati u raznim postojećim temama na forumu, otvarati nove teme, sudjelovati u chatu i još mnogo toga. Ako već imaš otvoren račun, logiraj se ovde ,a ako želiš saznati zašto smo najbolji otvori novi račun i uverite se sami :)
Photo

The Looking Glass (2015)

- - - - - 2015 drama glazbeni sad

No replies to this topic

#1
LEMONZOO

LEMONZOO

    Bronze Member

  • VIP
  • PipPipPipPip
  • 1,262 posts
  • 30986 thanks
  • LocationGavran Mahala

The Looking Glass (2015)

the_looking_glass_201gms2r.jpg

Please Login or Register to see this Hidden Content


Nakon gubitka majke 13-godišnja Julie dolazi u La Porte u Indiani živjeti s bakom Karen. Bivši zvijezda kazališta i filma, jedino Karen zna da boluje od ranog stadija Alzheimera. Očajnički se želi povezati sa svojom unukom na smislen način i podijeliti joj svoju povijest prije nego što bude prekasno. No njih dvije – svaka tvrdoglava na svoj način – sukobljavaju se na svakom koraku. Uskoro Karen otkriva vezu: Julien moćan pjevački glas. Glas vrlo sličan onomu koji je Karen nekada imala. Hoće li otkriće Juliena talenta biti dovoljno da ih spoji i omogućiti Karen da na vrijeme prenese svoje nasljeđe?

The Looking Glass (2015) 1080p

General
Unique ID                   : 180382209782058616561924623786705955833 (0x87B45994B607FCB4A679848E52A02BF9)
Complete name               : The Looking Glass (2015) 1080p.mkv
Format                      : Matroska
Format version              : Version 4 / Version 2
File size                   : 2.19 GiB
Duration                    : 1h 42mn
Overall bit rate            : 3 078 Kbps

Video
ID                          : 1
Format                      : AVC
Codec ID                    : V_MPEG4/ISO/AVC
Duration                    : 1h 42mn
Bit rate                    : 2 633 Kbps
Width                       : 1 920 pixels
Height                      : 1 080 pixels
Display aspect ratio        : 16:9
Frame rate                  : 25.000 fps
Color space                 : YUV
Chroma subsampling          : 4:2:0
Stream size                 : 1.88 GiB (86%)

Audio
ID                          : 2
Format                      : AC-3
Codec ID                    : A_AC3
Duration                    : 1h 42mn
Bit rate                    : 384 Kbps
Channel(s)                  : 2 channels
Channel positions           : Front: L R
Sampling rate               : 48.0 KHz
Stream size                 : 280 MiB (12%)
Language                    : English



thelookingglass2015103dp3j.jpg

thelookingglass2015100oosq.jpg

thelookingglass2015103gqkf.jpg

thelookingglass20151015oi7.jpg

Film:
Hidden Content
You'll be able to see the hidden content once you thank this post.


Thanked by 21 Members:
Dekano , perhan123 , MP12345 , vladopale , milanculibrk , klada56 , Zelenac1 , nocketalo , Muks88 , sefSale , Jokso , Bumblica1234 , MaliIgicGregor , bracovina , miki1965 , branij , mikula11 , ELED , Miki_Kiki_Riki , karudijan11 , mtkiki




Also tagged with one or more of these keywords: 2015, drama, glazbeni, sad

0 user(s) are reading this topic

0 members, 0 guests, 0 anonymous users