Jump to content

Dobrodošli na Balkandownload.org
Tražite domaće knjige, exyu magazine, sinhronizirane crtane filmove, PC i ostale igre, strane i domaće filmove, dokumentarce, stranu i domaću muziku, itd. ? Ne morate tražiti dalje jer sve ćete to naći kod nas, uredno postavljeno i spremno za download. Osim toga registracijom možete sudjelovati u raznim postojećim temama na forumu, otvarati nove teme, sudjelovati u chatu i još mnogo toga. Ako već imaš otvoren račun, logiraj se ovde ,a ako želiš saznati zašto smo najbolji otvori novi račun i uverite se sami :)
Photo

Kako su me ukrali Nemci (2011)


3 replies to this topic

#1
Tobacco Road

Tobacco Road

    The Warez GOD

  • Tobacco
  • PipPipPipPipPipPipPipPipPipPip
  • 24,270 posts
  • 1222174 thanks
  • Locationscrls

Kako su me ukrali Nemci (2011)
DVDRip Xvid


kakosumeukralinemciplak.jpg


 

 

Kako skinuti nesto sa Balkandownload-a?

www.slideshare.net/bd4yu/kako-skidati-fajlove-sa-balkan-download-a

Kako da pronadjete zeljeni sadrzaj na forumu? 

www.balkandownload.org/topic/40428-kako-pronaci-zeljeni-sadrzaj-na-forumu/

Najmračniji krugovi pakla su rezervisani za one koji u vremenima moralne krize ostanu neutralni i suzdržani -Dante Alighieri


Thanked by 36 Members:
Warez , badmanners , MaliIgicGregor , Zelenac1 , rmoraca , slonictonic , jelica89 , Mihoextrem100 , Rakar , Jorgos , tikazv , ilicnebojsa , cole_bor , satyr83 , Bontonko , draganiuss , mikula11 , film7899 , Gagisha , AccccO , letmispik , Xero5000 , mrmotija , vsvd , ivcxo , killer4629 , mdragan65 , tino1980 , danijeladanijel , savicmarko84 , sarki , zorandju , jocan123 , smedo , abudabili , atilaF

#2
Biotloneta

Biotloneta

    Bronze Member

  • Moderator
  • PipPipPipPip
  • 1,782 posts
  • 112219 thanks
  • LocationRobija
                 Kako su me ukrali Nemci (2011)
 
                                                          tina_3Mo940cover.jpg
 

Please Login or Register to see this Hidden Content

 
Opis: 1991 godina, obala Jadranskog mora, crnogorsko primorje, Aleks (52) je nedovoljno afirmisani pisac koji se bavi popravljanjem tuđih tekstova. Poreklom je iz nekadašnje Jugoslavije, živi samotnjački u kući na obali mora, namerno porušivši sve veze sa svojim prethodnim životom, a kao bez volje da izgradi nove. Aleks je vitalan, obrazovan i darovit, ali je kao osetljivi ljudi u izvesnim godinama, pomalo mizantrop. Druži se jedino sa lokalnim doktorom (50) i ima povremene susrete sa prostitutkama. Jednog dana u njegovom životu se pojavljuje Dita (29), nekadašnja prostitutka koja mu dovodi devojčicu Romi (6). Romi je dete Ditine pokojne sestre sa kojom se Aleks nekada susretao, pa Dita smatra da je Romi možda i njegovo dete. Ne želeći da se brine o detetu, uprkos Aleksovom snažnom protivljenju, Dita malu Romi ostavlja Aleksu. Aleks odlučuje da devojčicu odvede u obližnji veći grad i tamo je preda Centru za socijalni rad. Tokom puta od Aleksove kuće na obali do Centra za socijalni rad, Aleks Romi u nekoliko krupnih flešbekova priča priču o svom detinjstvu.
 
Uloge:
Jelena Đokić Jelena
Daglas Henšel Verner Kraus
Svetozar Cvetković Aleks
Dara Džokić Divna
Miodrag Krstović Aleksanadar
Voja Brajović Lekar
Gordan Kičić Blagoje
Nada Šargin Eli
Nenad Ćirić Agent predvodnik
Nebojša Milovanović Ljotićevac
Branimir Popović Đorđe
Vlasta Velisavljević Berberin
Milutin Jevđenijević Žunja četnik
Nikola Vujović Čela
Boris Isaković Sredoje Četnik
Bojan Perić Nemački vojnik
Jelisaveta Orašanin Lepa
Mladen Nelević Aleksin prijatelj
Marko Jeremić Mršavko
Vera Đukić Doktorka u prihvatilištu
Marija Dakić Zlata
Branislav Jevtić Utučeni
Đorđe Viktor Vlajić Zlatko
Stevan Cvetković Pacijent
Stela Ćetković
 
Režija: Miloš Radivojević
 
Žanr: Drama
 
KtH2FnR.jpg

Hidden Content
You'll be able to see the hidden content once you thank this post.



Thanked by 125 Members:

#3
Zoran_

Zoran_

    Gold Member

  • VIP
  • PipPipPipPipPipPip
  • 6,482 posts
  • 198195 thanks
Kako su me ukrali Nemci (2011)
 
 
HjJeZnQ.png
 
Su6Ksi6.jpg
 

Please Login or Register to see this Hidden Content

 
 
1991 godina, obala Jadranskog mora, crnogorsko primorje, Aleks (52) je nedovoljno afirmisani pisac koji se bavi popravljanjem tuđih tekstova. Poreklom je iz nekadašnje Jugoslavije, živi samotnjački u kući na obali mora, namerno porušivši sve veze sa svojim prethodnim životom, a kao bez volje da izgradi nove. Aleks je vitalan, obrazovan i darovit, ali je kao osetljivi ljudi u izvesnim godinama, pomalo mizantrop. Druži se jedino sa lokalnim doktorom (50) i ima povremene susrete sa prostitutkama. Jednog dana u njegovom životu se pojavljuje Dita (29), nekadašnja prostitutka koja mu dovodi devojčicu Romi (6). Romi je dete Ditine pokojne sestre sa kojom se Aleks nekada susretao, pa Dita smatra da je Romi možda i njegovo dete. Ne želeći da se brine o detetu, uprkos Aleksovom snažnom protivljenju, Dita malu Romi ostavlja Aleksu. Aleks odlučuje da devojčicu odvede u obližnji veći grad i tamo je preda Centru za socijalni rad. Tokom puta od Aleksove kuće na obali do Centra za socijalni rad, Aleks Romi u nekoliko krupnih flešbekova priča priču o svom detinjstvu.
 
tpyt77v209.png
 
8ZXJbkT.gif
 
9EX4cnD.jpg
 
 
Oets6ur.gif
 
Kako su me ukrali Nemci (2011) 720p.HDRip.x264.mkv
 

 

 

Hidden Content
You'll be able to see the hidden content once you thank this post.


Molbe za moje linkove, šaljite na PP.

 

Zabranjeno je kopiranje mojih linkova,reupload i postavljanje na druge forume!


Thanked by 101 Members:

#4
Wolf 13

Wolf 13

    Advanced Member

  • Members
  • PipPipPip
  • 456 posts
  • 47243 thanks
Kako su me ukrali Nemci (2011) 1080p HC WEBrip DD5.1 x264 by Wolf
(MKV) HQ
 
F7ktV5X.jpg
 

Please Login or Register to see this Hidden Content

 

General
Unique ID                   : 273833307826071326872998328665690223387 (0xCE026071761F779D8E3C2A7E72EE331B)
Complete name               : Kako su me ukrali Nemci (2011) 1080p HC WEBrip DD5.1 x264 by Wolf.mkv
Format                      : Matroska
Format version              : Version 4
File size                   : 1.74 GiB
Duration                    : 2 h 14 min
Overall bit rate            : 1 857 kb/s
Encoded date                : UTC 2020-06-25 19:59:31
Writing application         : mkvmerge v47.0.0 ('Black Flag') 64-bit
Writing library             : libebml v1.3.10 + libmatroska v1.5.2
 
Video
ID                          : 1
Format                      : AVC
Format/Info                 : Advanced Video Codec
Format profile              : [email protected]
Format settings             : CABAC / 16 Ref Frames
Format settings, CABAC      : Yes
Format settings, Reference  : 16 frames
Codec ID                    : V_MPEG4/ISO/AVC
Duration                    : 2 h 14 min
Bit rate                    : 1 600 kb/s
Width                       : 1 920 pixels
Height                      : 1 036 pixels
Display aspect ratio        : 1.85:1
Frame rate mode             : Constant
Frame rate                  : 25.000 FPS
Color space                 : YUV
Chroma subsampling          : 4:2:0
Bit depth                   : 8 bits
Scan type                   : Progressive
Bits/(Pixel*Frame)          : 0.032
Stream size                 : 1.50 GiB (86%)
Title                       : Kako su me ukrali Nemci (2011)
Writing library             : x264 core 157 r2935 545de2f
Encoding settings           : cabac=1 / ref=16 / deblock=1:-1:-1 / analyse=0x3:0x133 / me=umh / subme=10 / psy=1 / psy_rd=1.00:0.15 / mixed_ref=1 / me_range=24 / chroma_me=1 / trellis=2 / 8x8dct=1 / cqm=0 / deadzone=21,11 / fast_pskip=1 / chroma_qp_offset=-3 / threads=6 / lookahead_threads=1 / sliced_threads=0 / nr=0 / decimate=1 / interlaced=0 / bluray_compat=0 / constrained_intra=0 / bframes=8 / b_pyramid=2 / b_adapt=2 / b_bias=0 / direct=3 / weightb=1 / open_gop=0 / weightp=2 / keyint=250 / keyint_min=25 / scenecut=40 / intra_refresh=0 / rc_lookahead=60 / rc=2pass / mbtree=1 / bitrate=1600 / ratetol=1.0 / qcomp=0.60 / qpmin=0 / qpmax=69 / qpstep=4 / cplxblur=20.0 / qblur=0.5 / vbv_maxrate=300000 / vbv_bufsize=300000 / nal_hrd=none / filler=0 / ip_ratio=1.40 / aq=1:1.00
Language                    : Serbian
Default                     : Yes
Forced                      : No
Color range                 : Limited
Color primaries             : BT.709
Transfer characteristics    : BT.709
Matrix coefficients         : BT.709
 
Audio
ID                          : 2
Format                      : E-AC-3
Format/Info                 : Enhanced AC-3
Commercial name             : Dolby Digital Plus
Codec ID                    : A_EAC3
Duration                    : 2 h 14 min
Bit rate mode               : Constant
Bit rate                    : 256 kb/s
Channel(s)                  : 6 channels
Channel layout              : L R C LFE Ls Rs
Sampling rate               : 48.0 kHz
Frame rate                  : 31.250 FPS (1536 SPF)
Compression mode            : Lossy
Delay relative to video     : -6 ms
Stream size                 : 246 MiB (14%)
Title                       : Kako su me ukrali Nemci (2011)
Language                    : Serbian
Service kind                : Complete Main
Default                     : Yes
Forced                      : No
 
epYscVA.png
Hidden Content
You'll be able to see the hidden content once you thank this post.
zbNKcak.jpg
Hidden Content
You'll be able to see the hidden content once you thank this post.
 
wnhY5XA.png
hby6dCd.jpg


Thanked by 42 Members:
Warez , bobankostic , Yildirim , beograd1960' , amza , grof65 , bpeters2009 , morse , FoggyMan , SaleXieri , kikambas , bule68 , badmanners , sdlder , Zareee , screwdriver , milanalorica , danep , Zenicanin , Homss , aca0808 , mimi01 , abc123 , nnnxsz , sasadjas , micelj , MaliIgicGregor , Jorgos , epikur69 , Usualman , zzoki , fffunkymannn , Interbrigadista , melanhton , Jokso , tompar , micigen , blauer , radionica1 , Miki_Kiki_Riki , lela82bg , Zelenac1



0 user(s) are reading this topic

0 members, 0 guests, 0 anonymous users