Jump to content

Dobrodošli na Balkandownload.org
Tražite domaće knjige, exyu magazine, sinhronizirane crtane filmove, PC i ostale igre, strane i domaće filmove, dokumentarce, stranu i domaću muziku, itd. ? Ne morate tražiti dalje jer sve ćete to naći kod nas, uredno postavljeno i spremno za download. Osim toga registracijom možete sudjelovati u raznim postojećim temama na forumu, otvarati nove teme, sudjelovati u chatu i još mnogo toga. Ako već imaš otvoren račun, logiraj se ovde ,a ako želiš saznati zašto smo najbolji otvori novi račun i uverite se sami :)
Photo

Smeker (1986)


3 replies to this topic

#1
lape

lape

    Advanced Member

  • Members
  • PipPipPip
  • 291 posts
  • 1095 thanks
  • LocationNis, Srbija

Šmeker (1986)



Thanked by 40 Members:
amza , Miki_Kiki_Riki , Zelenac1 , mikimico , salomon1 , petar_88 , peroit , vepromon , dusko51 , dj04 , sheretoto , Verdeja , b50andi , Bontonko , dejanbizon , roler , pedjatop , janbelo , mackosopa , iggy973 , zemunelo82 , awaysale , tamara0608 , barutan93 , siljo , dotstar , zmajoshi , rade51 , jovicai , bataraka , somsi , kareemabdul , kresomirovic , nenad72yu , tomicazgb , cobra017 , fun_cut , vele123 , BruceBruce87 , ninoo

#2
Zoran

Zoran

    Gold Member

  • VIP
  • PipPipPipPipPipPip
  • 6,497 posts
  • 198980 thanks
Smeker (1986)
 
 
 
Smeker1986.png
 
imdb6.jpg
 

Please Login or Register to see this Hidden Content

 
Prica o mladicu sa periferije koji zivotnu skolu uci na ulici i u kafani. Njegova devojka pripada istoj sredini. Kad on ode u vojsku, devojka pokusava da se izvuce sa periferije, zalazuci jedino sto ima - svoj lepi izgled. Pozira naga za jedan casopis. Kada vidi tu fotografiju, mladic bezi iz vojske da bi zatrazio objasnjenje. Povratak u sredinu kojoj je do juce pripadao namece mu, pre svega, sopstveno preispitivanje, zatim raspravu sa takozvanim prijateljima, pa tek onda sa devojkom ...
 
ht31u34nv.png
 
O3LldJN.gif
 
WPLQW7w.jpg
 
downloade0cdd.gif
 
Smeker (1986) DVDRip.x264.mkv
 
SFYUbuP.jpg
 
Hidden Content
You'll be able to see the hidden content once you thank this post.

Molbe za moje linkove, šaljite na PP.


Zabranjeno je kopiranje mojih linkova,reupload i postavljanje na druge forume!


Thanked by 138 Members:

#3
Wolf 13

Wolf 13

    Advanced Member

  • Members
  • PipPipPip
  • 459 posts
  • 47462 thanks
Smeker (1986) DVDrip DD5.1 x264 by Wolf
(MKV)
 
hLysNLT.jpg
 

Please Login or Register to see this Hidden Content

 

 

General
Unique ID                   : 249559260004367753635602964518756935512 (0xBBBF5D7C0DA537EAE93A68997957E758)
Complete name               : Smeker (1986) DVDrip DD5.1 x264 by Wolf.mkv
Format                      : Matroska
Format version              : Version 4
File size                   : 1.13 GiB
Duration                    : 1 h 27 min
Overall bit rate            : 1 858 kb/s
Encoded date                : UTC 2019-02-07 16:35:40
Writing application         : mkvmerge v30.1.0 ('Forever And More') 64-bit
Writing library             : libebml v1.3.6 + libmatroska v1.4.9 / Lavf58.20.100
 
Video
ID                          : 1
Format                      : AVC
Format/Info                 : Advanced Video Codec
Format profile              : [email protected]
Format settings             : CABAC / 8 Ref Frames
Format settings, CABAC      : Yes
Format settings, ReFrames   : 8 frames
Codec ID                    : V_MPEG4/ISO/AVC
Duration                    : 1 h 27 min
Bit rate                    : 1 600 kb/s
Width                       : 700 pixels
Height                      : 574 pixels
Display aspect ratio        : 16:9
Original display aspect rat : 3:2
Frame rate mode             : Constant
Frame rate                  : 25.000 FPS
Color space                 : YUV
Chroma subsampling          : 4:2:0
Bit depth                   : 8 bits
Scan type                   : Progressive
Bits/(Pixel*Frame)          : 0.159
Stream size                 : 1 000 MiB (86%)
Title                       : Smeker (1986)
Writing library             : x264 core 157 r2935 545de2f
Encoding settings           : cabac=1 / ref=8 / deblock=1:-1:-1 / analyse=0x3:0x133 / me=umh / subme=9 / psy=1 / psy_rd=1.00:0.15 / mixed_ref=1 / me_range=16 / chroma_me=1 / trellis=2 / 8x8dct=1 / cqm=0 / deadzone=21,11 / fast_pskip=1 / chroma_qp_offset=-3 / threads=6 / lookahead_threads=1 / sliced_threads=0 / nr=0 / decimate=1 / interlaced=0 / bluray_compat=0 / constrained_intra=0 / bframes=3 / b_pyramid=2 / b_adapt=2 / b_bias=0 / direct=3 / weightb=1 / open_gop=0 / weightp=2 / keyint=250 / keyint_min=25 / scenecut=40 / intra_refresh=0 / rc_lookahead=60 / rc=2pass / mbtree=1 / bitrate=1600 / ratetol=1.0 / qcomp=0.60 / qpmin=0 / qpmax=69 / qpstep=4 / cplxblur=20.0 / qblur=0.5 / vbv_maxrate=300000 / vbv_bufsize=300000 / nal_hrd=none / filler=0 / ip_ratio=1.40 / aq=1:1.00
Language                    : Serbian
Default                     : Yes
Forced                      : No
Color range                 : Limited
Color primaries             : BT.601 PAL
Transfer characteristics    : BT.709
Matrix coefficients         : BT.601
 
Audio
ID                          : 2
Format                      : E-AC-3
Format/Info                 : Enhanced AC-3
Commercial name             : Dolby Digital Plus
Codec ID                    : A_EAC3
Duration                    : 1 h 27 min
Bit rate mode               : Constant
Bit rate                    : 256 kb/s
Channel(s)                  : 6 channels
Channel layout              : L R C LFE Ls Rs
Sampling rate               : 48.0 kHz
Frame rate                  : 31.250 FPS (1536 SPF)
Compression mode            : Lossy
Delay relative to video     : -85 ms
Stream size                 : 160 MiB (14%)
Title                       : Smeker (1986)
Language                    : Serbian
Service kind                : Complete Main
Default                     : Yes
Forced                      : No
 
epYscVA.png
Hidden Content
You'll be able to see the hidden content once you thank this post.
 
VQBRs6h.png
YrxE5uI.jpg

Edited by Wolf 13, 01 January 2020 - 19:10.


Thanked by 92 Members:

#4
labusinjo

labusinjo

    Advanced Member

  • Members
  • PipPipPip
  • 161 posts
  • 61496 thanks

Šmeker (1986) - 720p

 

Smeker-mp4-thumbs2.jpg

 

Hidden Content
You'll be able to see the hidden content once you thank this post.


Thanked by 60 Members:
xejt , starrats , lena1 , asceric , draganadragana2010 , luxradio , KokaRoka , brain , stribi , robertsuk , settim , nikolapppp , blauer , walter13 , Aquavald , kraguj55 , ivory , amza , AlexSretkovic1994 , tegejac , sabor , denimiko1 , maltezer , centrala88 , balkanac011 , boriskoo , lenjabuba , jumanjinz , danep , goranbeg , radionica1 , Usualman , nesom , alexxxxa , Okinava , Homss , zaostrog , Enkobp , lovaccc , goraneo , maraja_bor , dukson1959 , Miki_Kiki_Riki , aca0808 , danijeladanijel , robertp , beograd1960' , papak3333 , Zelenac1 , ss_semi , aleksapet , DJSpirina , triggerman , bobankostic , opetopet , Prene , fffunkymannn , Interbrigadista , darks , woodooye



0 user(s) are reading this topic

0 members, 0 guests, 0 anonymous users