Jump to content

Dobrodošli na Balkandownload.org
Tražite domaće knjige, exyu magazine, sinhronizirane crtane filmove, PC i ostale igre, strane i domaće filmove, dokumentarce, stranu i domaću muziku, itd. ? Ne morate tražiti dalje jer sve ćete to naći kod nas, uredno postavljeno i spremno za download. Osim toga registracijom možete sudjelovati u raznim postojećim temama na forumu, otvarati nove teme, sudjelovati u chatu i još mnogo toga. Ako već imaš otvoren račun, logiraj se ovde ,a ako želiš saznati zašto smo najbolji otvori novi račun i uverite se sami :)
Photo

Vuk Samotnjak (1972)


4 replies to this topic

#1
Wolf 13

Wolf 13

    Advanced Member

  • Members
  • PipPipPip
  • 453 posts
  • 46218 thanks
Vuk samotnjak (1972) 1080p MAXtv REMASTERED DD5.1 x264 by Wolf
(MKV) HQ
 
NPp37cg.jpg
 

Please Login or Register to see this Hidden Content

 

General
Unique ID                   : 150895491541474983883669979597153666153 (0x71856A20D19F7BBF45E3EBAA2F668469)
Complete name               : Vuk samotnjak (1972) 1080p MAXtv REMASTERED DD5.1 x264 by Wolf.mkv
Format                      : Matroska
Format version              : Version 4
File size                   : 999 MiB
Duration                    : 1 h 19 min
Overall bit rate            : 1 758 kb/s
Movie name                  : Lone Wolf (1972)
Encoded date                : UTC 2020-06-15 18:12:14
Writing application         : mkvmerge v47.0.0 ('Black Flag') 64-bit
Writing library             : libebml v1.3.10 + libmatroska v1.5.2
 
Video
ID                          : 1
Format                      : AVC
Format/Info                 : Advanced Video Codec
Format profile              : [email protected]
Format settings             : CABAC / 16 Ref Frames
Format settings, CABAC      : Yes
Format settings, Reference  : 16 frames
Codec ID                    : V_MPEG4/ISO/AVC
Duration                    : 1 h 19 min
Bit rate                    : 1 500 kb/s
Width                       : 1 440 pixels
Height                      : 1 078 pixels
Display aspect ratio        : 16:9
Frame rate mode             : Constant
Frame rate                  : 25.000 FPS
Color space                 : YUV
Chroma subsampling          : 4:2:0
Bit depth                   : 8 bits
Scan type                   : Progressive
Bits/(Pixel*Frame)          : 0.039
Stream size                 : 853 MiB (85%)
Title                       : Vuk samotnjak (1972)
Writing library             : x264 core 157 r2935 545de2f
Encoding settings           : cabac=1 / ref=16 / deblock=1:-1:-1 / analyse=0x3:0x133 / me=umh / subme=10 / psy=1 / psy_rd=1.00:0.15 / mixed_ref=1 / me_range=24 / chroma_me=1 / trellis=2 / 8x8dct=1 / cqm=0 / deadzone=21,11 / fast_pskip=1 / chroma_qp_offset=-3 / threads=6 / lookahead_threads=1 / sliced_threads=0 / nr=0 / decimate=1 / interlaced=0 / bluray_compat=0 / constrained_intra=0 / bframes=8 / b_pyramid=2 / b_adapt=2 / b_bias=0 / direct=3 / weightb=1 / open_gop=0 / weightp=2 / keyint=250 / keyint_min=25 / scenecut=40 / intra_refresh=0 / rc_lookahead=60 / rc=2pass / mbtree=1 / bitrate=1500 / ratetol=1.0 / qcomp=0.60 / qpmin=0 / qpmax=69 / qpstep=4 / cplxblur=20.0 / qblur=0.5 / vbv_maxrate=300000 / vbv_bufsize=300000 / nal_hrd=none / filler=0 / ip_ratio=1.40 / aq=1:1.00
Language                    : Serbian
Default                     : Yes
Forced                      : No
Color range                 : Limited
Color primaries             : BT.709
Transfer characteristics    : BT.709
Matrix coefficients         : BT.709
 
Audio
ID                          : 2
Format                      : AC-3
Format/Info                 : Audio Coding 3
Commercial name             : Dolby Digital
Codec ID                    : A_AC3
Duration                    : 1 h 19 min
Bit rate mode               : Constant
Bit rate                    : 256 kb/s
Channel(s)                  : 6 channels
Channel layout              : L R C LFE Ls Rs
Sampling rate               : 48.0 kHz
Frame rate                  : 31.250 FPS (1536 SPF)
Compression mode            : Lossy
Delay relative to video     : -5 ms
Stream size                 : 145 MiB (15%)
Title                       : Vuk samotnjak (1972)
Language                    : Croatian
Service kind                : Complete Main
Default                     : Yes
Forced                      : No
 
epYscVA.png
Hidden Content
You'll be able to see the hidden content once you thank this post.
zbNKcak.jpg
Hidden Content
You'll be able to see the hidden content once you thank this post.
 
odlMCMw.jpg
2zZ1dQR.jpg

Edited by Wolf 13, 15 June 2020 - 19:35.


Thanked by 157 Members:

#2
Zoran_

Zoran_

    Gold Member

  • VIP
  • PipPipPipPipPipPip
  • 6,444 posts
  • 194104 thanks
Vuk Samotnjak (1972)
 
 
VukSamotnjak1972.png
 
imdb6.jpg
 

Please Login or Register to see this Hidden Content

 
Decak u planini nalazi velikog psa slicnog vuku i sprijateljuje se sa njim. Medjutim, seljani veruju da se radi o opasnom vuku, samotnjaku, i da ga treba ubiti. Decak zbog toga strahuje za svog ljubimca. Krisom mu nosi hranu u planinu. Pas ga jednom cak spasava od vuka. Ali hajka pocinje,jer seljaci veruju da je taj samotnjak poklao ovce u jednom toru... 
 
VukSamotnjak1972.avi.gif
 
VukSamotnjak1972.avi.jpg
 
downloade0cdd.gif
 
Vuk Samotnjak (1972) DVDRip
 
SFYUbuP.jpg
 
Hidden Content
You'll be able to see the hidden content once you thank this post.

Molbe za moje linkove, šaljite na PP.

 

Zabranjeno je kopiranje mojih linkova,reupload i postavljanje na druge forume!


Thanked by 101 Members:

#3
nikolakralj100

nikolakralj100

    Advanced Member

  • Members
  • PipPipPip
  • 354 posts
  • 27510 thanks

Vuk samotnjak (1972) DVDr

 

SPtN1Mw.jpg

 

Decak u planini nalazi velikog psa slicnog vuku i sprijateljuje se sa njim. Medjutim, seljani veruju da se radi o opasnom vuku, samotnjaku, i da ga treba ubiti. Decak zbog toga strahuje za svog ljubimca. Krisom mu nosi hranu u planinu. Pas ga jednom cak spasava od vuka. Ali hajka pocinje,jer seljaci veruju da je taj samotnjak poklao ovce u jednom toru...

 

Hidden Content
You'll be able to see the hidden content once you thank this post.


Thanked by 56 Members:
amza , toco222 , stolar20 , GORANJ79 , igor22 , Emri , keki79 , predislav2 , neo777 , otherbds , ninogal , edin.bec , buzdovan22 , sike004 , Inovator , Karamazov , Miki76 , gkaran , KrikNaglas , nn007 , lena1 , mrki_tua , amiga500emulator1 , milanalorica , deni993 , pliva , sub0 , Draxi , draganbauk , Josip49 , lilke , prviput , Edifier , montezuma , todosije , kockari , tailorPFC , kvikigrici , slavke , jovica100 , balkankankan , batman , Wolf 13 , polkica , Zelenac1 , goraneo , lovaccc , markometalac2 , 1zec , rafael13 , liquid , milanzivic , dragica , senilni , krabulja , Biotloneta

#4
BD_TV

BD_TV

    Gold Member

  • Sponsor
  • PipPipPipPipPipPip
  • 9,011 posts
  • 643022 thanks

Vuk Samotnjak (1972) REMASTERED 1080p BluRay x264 DD5.1 - BD4YU

 

dbFJTOL.jpg

 

kombinovani linkovi

Hidden Content
You'll be able to see the hidden content once you thank this post.



Thanked by 73 Members:
markonie , jopesini , Emri , Zareee , KokaRoka , todorko85 , PerunGromovnik , dj1van , loyaavod , draganbauk , hjundai , nietzchehesse , djroske , grunfic , Trandafil , verdant , danielb028 , culebgd , papak3333 , voje , anelkos , amza , denimiko1 , Wolf 13 , 011gogo , micelj , jovanabg011 , rusko , abc123 , aleksapet , grof65 , Okinava , toco222 , bongobuda , r2d2 , krkvis , bojanbojan , bobankostic , lika , stankokljajic , stolar20 , senilni , hajdukjovance , GigaMoravac11 , Zoran_ , beograd1960' , superjura , Milan1959 , milance1969 , Dejan1966 , opetopet , fffunkymannn , Sanjin13 , dzoni2020 , blauer , igor22 , Zelenac1 , bateboris , ppribic , dedamiro , lopatarbb , alexxxxa , aca72 , Jokso , nikolakralj100 , drdm , zzoki , DJSpirina , gbarac , japatipi , robertp , marineros , Usualman

#5
BD_TV

BD_TV

    Gold Member

  • Sponsor
  • PipPipPipPipPipPip
  • 9,011 posts
  • 643022 thanks

Vuk Samotnjak (1972) REMASTERED 720p BluRay x264 DD5.1 - BD4YU

 

wrn4ZRO.jpg

 

preuzimanje:

Hidden Content
You'll be able to see the hidden content once you thank this post.

 



Thanked by 38 Members:
jopesini , Emri , 10500 , kockari , Wolf 13 , goraneo , gorskivuci , loyaavod , draganbauk , nenad72yu , hjundai , hudson , Homme , Jokso , amza , denimiko1 , zumbaroy , radionica1 , jovanabg011 , hajdukjovance , coresasa , BigDaddy , alando9 , mirko_cilicax , draganadragana2010 , toco222 , Gagisha , Lykos Greece , stolar20 , senilni , aca72 , zzoki , Milan1959 , myschko13 , ss_semi , beograd1960' , radonja86 , dzimislav leone



0 user(s) are reading this topic

0 members, 0 guests, 0 anonymous users