Jump to content

Dobrodošli na Balkandownload.org
Tražite domaće knjige, exyu magazine, sinhronizirane crtane filmove, PC i ostale igre, strane i domaće filmove, dokumentarce, stranu i domaću muziku, itd. ? Ne morate tražiti dalje jer sve ćete to naći kod nas, uredno postavljeno i spremno za download. Osim toga registracijom možete sudjelovati u raznim postojećim temama na forumu, otvarati nove teme, sudjelovati u chatu i još mnogo toga. Ako već imaš otvoren račun, logiraj se ovde ,a ako želiš saznati zašto smo najbolji otvori novi račun i uverite se sami :)
Photo

Sedam i po (2006)


3 replies to this topic

#1
MaliGrizeBeton

MaliGrizeBeton

    Silver Member

  • Members
  • PipPipPipPipPip
  • 2,524 posts
  • 25536 thanks

Sedam i po (2006)

 
50572496806134632283.png
 

Scenario: Miroslav Momcilovic

Rezija: Miroslav Momcilovic
Zanr: Komedija
Godina: 2006
 
Uloge: Branislav Trifunovic, Nikola Vujovic, Gordana Djurdevic, Andelika Simic, Nikola Djuricko,
Boris Milivojevic, Dubravko Jovanovic, Mira Stupica, Ana Stanic, Zorka Manojlovic, Milos Timotijevic, Marija
Karan, Marko Vasovic, Toma Trifunovic, Rale Milenkovic, Branko Vidakovic, Boris Komnenic, Ksenija Bujisic,
Gordan Kicic, Ljubinka Klaric, Lane Gutovic, Nenad Jezdic, Natasa Markovic, Goran Sultanovic, Kokan
Mladenovic, Aleksandra Jankovic, Ahmet Buric, Djorde Marjanovic, Bora Nenic, Srdjan Miletic, Misa Samolov,
Mladen Nelevic, Milica Mihajlovic, Marija Arsic
 
Opis: U filmu "Sedam i po" zastupljeno je sedam prica koje simbolizuju sedam biblijskih smrtnih grehova.
Sedam prica "iz kraja" koje povezuje lajtmotiv - sedam smrtnih grehova, na komican nacin tretiraju
svakodnevicu Novobeogradana opsednutih svojim sitnim slabostima i vodenih strastima. Gordost, ocajanje u
lenjosti, zavist, gnev, srebroljublje, pozuda i neumerenost u jelu i picu jesu biblijski gresi, ali u
savremeno doba postaju skoro apsurdni u kontekstu mnogo gorih i vecih civilizacijskih problema. Zato
scenario neprestano poziva na smeh - ovladati svojim strahovima i problemima, nasmejati se sebi u sebi,
biti autoironican-to je nacin prevazilazenja sopstvene boli. Junake boli to sto im tako malo, a ipak
dovoljno, nedostaje da budu srecni.
 

 

Please Login or Register to see this Hidden Content

Upload domacih filmova posvecen jednom od najvecih uplaodera domacih filmova Lape Vecna ti slava druze



Thanked by 52 Members:
Zlatko38 , IvkicM , HannibalVgd , zjevtic , vorko , MikiM66 , marley1 , Jorgos , Sam Jones , Zelenac1 , burence , lujo1 , MarinaPop , kingofcool , danijelhyde , draganbauk , talambirov , zbzb , mallaivancica , Mantronix , Pera34 , papayamas , scarlett3 , Nikolatb , mile.90 , Ikapec , Mikele Placido , tv312jf , Interesent , kater , zonep , StefanUžice , tajcikus , ljudozderka8 , Jeja1993 , okac03 , reraom , benefactor , jacadobricevka , nenadarsic , ivorgic , oupsssyaooF , Stanoje2304 , kavala , kenannp , Mrvica39 , vojinvanja , malenaxy , franjo13.sb , Alexa357 , iambatman , mencica

#2
Wolf 13

Wolf 13

    Advanced Member

  • Members
  • PipPipPip
  • 454 posts
  • 46294 thanks
Sedam i po (2006) DVDrip DD5.1 x264 by Wolf
(MKV) HQ
 
O9tUZAi.jpg
 

Please Login or Register to see this Hidden Content

General
Unique ID                   : 168902172201945773447588626028749077130 (0x7F1160074FF677D1C8121C8C1EDF3A8A)
Complete name               : Sedam i po (2006) DVDrip DD5.1 x264 by Wolf.mkv
Format                      : Matroska
Format version              : Version 4
File size                   : 1.30 GiB
Duration                    : 1 h 46 min
Overall bit rate            : 1 754 kb/s
Encoded date                : UTC 2018-08-20 12:38:35 / UTC 2018-08-19T18:06:12Z
Writing application         : mkvmerge v25.0.0 ('Prog Noir') 64-bit
Writing library             : libebml v1.3.6 + libmatroska v1.4.9 / Lavf57.7.2
 
Video
ID                          : 1
Format                      : AVC
Format/Info                 : Advanced Video Codec
Format profile              : High [email protected]
Format settings             : CABAC / 5 Ref Frames
Format settings, CABAC      : Yes
Format settings, ReFrames   : 5 frames
Codec ID                    : V_MPEG4/ISO/AVC
Duration                    : 1 h 46 min
Bit rate                    : 1 500 kb/s
Width                       : 718 pixels
Height                      : 576 pixels
Display aspect ratio        : 16:9
Frame rate mode             : Constant
Frame rate                  : 25.000 FPS
Color space                 : YUV
Chroma subsampling          : 4:2:0
Bit depth                   : 10 bits
Scan type                   : Progressive
Bits/(Pixel*Frame)          : 0.145
Stream size                 : 1.08 GiB (83%)
Title                       : Sedam i po (2006)
Writing library             : x264 core 155 r2901 7d0ff22
Encoding settings           : cabac=1 / ref=5 / deblock=1:0:0 / analyse=0x3:0x113 / me=hex / subme=8 / psy=1 / psy_rd=1.00:0.00 / mixed_ref=1 / me_range=16 / chroma_me=1 / trellis=2 / 8x8dct=1 / cqm=0 / deadzone=21,11 / fast_pskip=1 / chroma_qp_offset=-2 / threads=3 / lookahead_threads=1 / sliced_threads=0 / nr=0 / decimate=1 / interlaced=0 / bluray_compat=0 / constrained_intra=0 / bframes=3 / b_pyramid=2 / b_adapt=1 / b_bias=0 / direct=3 / weightb=1 / open_gop=0 / weightp=2 / keyint=250 / keyint_min=25 / scenecut=40 / intra_refresh=0 / rc_lookahead=50 / rc=2pass / mbtree=1 / bitrate=1500 / ratetol=1.0 / qcomp=0.60 / qpmin=0 / qpmax=81 / qpstep=4 / cplxblur=20.0 / qblur=0.5 / vbv_maxrate=150000 / vbv_bufsize=187500 / nal_hrd=none / filler=0 / ip_ratio=1.40 / aq=1:1.00
Language                    : Serbian
Default                     : Yes
Forced                      : No
Color range                 : Limited
Color primaries             : BT.601 PAL
Transfer characteristics    : BT.709
Matrix coefficients         : BT.601
Statistics Tags Issue       : mkvmerge v25.0.0 ('Prog Noir') 64-bit 2018-08-20 12:38:35 / mkvmerge v25.0.0 ('Prog Noir') 64-bit 2018-08-20 12:38:35 / UTC 2018-08-19T18:06:12Z
FromStats_BitRate           : 1499418
FromStats_Duration          : 01:45:53.920000000
FromStats_FrameCount        : 158848
FromStats_StreamSize        : 1190898057
 
Audio
ID                          : 2
Format                      : E-AC-3
Format/Info                 : Enhanced AC-3
Commercial name             : Dolby Digital Plus
Codec ID                    : A_EAC3
Duration                    : 1 h 46 min
Bit rate mode               : Constant
Bit rate                    : 256 kb/s
Channel(s)                  : 6 channels
Channel layout              : L R C LFE Ls Rs
Sampling rate               : 48.0 kHz
Frame rate                  : 31.250 FPS (1536 SPF)
Compression mode            : Lossy
Delay relative to video     : -101 ms
Stream size                 : 194 MiB (15%)
Title                       : Sedam i po (2006)
Language                    : Serbian
Service kind                : Complete Main
Default                     : Yes
Forced                      : No
Statistics Tags Issue       : mkvmerge v25.0.0 ('Prog Noir') 64-bit 2018-08-20 12:38:35 / mkvmerge v25.0.0 ('Prog Noir') 64-bit 2018-08-20 12:38:35 / UTC 2018-08-19T18:06:12Z
FromStats_BitRate           : 256000
FromStats_Duration          : 01:46:07.072000000
FromStats_FrameCount        : 198971
FromStats_StreamSize        : 203746304
 
epYscVA.png
Hidden Content
You'll be able to see the hidden content once you thank this post.
zbNKcak.jpg
Hidden Content
You'll be able to see the hidden content once you thank this post.
PmVKvq2.png
e7aRZLN.jpg

Edited by Wolf 13, 08 May 2020 - 20:34.


Thanked by 201 Members:

#3
Zoran_

Zoran_

    Gold Member

  • VIP
  • PipPipPipPipPipPip
  • 6,444 posts
  • 194276 thanks
Sedam i po (2006)
 
 
Sedamipo2006.png
 
Su6Ksi6.jpg
 

Please Login or Register to see this Hidden Content

 
U filmu "Sedam i po" zastupljeno je sedam prica koje simbolizuju sedam biblijskih smrtnih grehova. Sedam prica "iz kraja" koje povezuje lajtmotiv - sedam smrtnih grehova, na komican nacin tretiraju svakodnevicu Novobeogradana opsednutih svojim sitnim slabostima i vodenih strastima. Gordost, ocajanje u lenjosti, zavist, gnev, srebroljublje, pozuda i neumerenost u jelu i picu jesu biblijski gresi, ali usavremeno doba postaju skoro apsurdni u kontekstu mnogo gorih i vecih civilizacijskih problema. Zato scenario neprestano poziva na smeh - ovladati svojim strahovima i problemima, nasmejati se sebi u sebi, biti autoironican-to je nacin prevazilazenja sopstvene boli. Junake boli to sto im tako malo, a ipak dovoljno, nedostaje da budu srecni.
 
Sedamipo2006.avi.gif
 
Sedamipo2006.avi.jpg
 
Oets6ur.gif
 
Sedam i po (2006) DVDRip avi
 
SFYUbuP.jpg

 

Hidden Content
You'll be able to see the hidden content once you thank this post.

Molbe za moje linkove, šaljite na PP.

 

Zabranjeno je kopiranje mojih linkova,reupload i postavljanje na druge forume!


Thanked by 156 Members:

#4
labusinjo

labusinjo

    Advanced Member

  • Members
  • PipPipPip
  • 161 posts
  • 61272 thanks

Sedam i po (2006) DVDRip

Sedam-i-po-DVDrip-mp4-thumbs.jpg

Hidden Content
You'll be able to see the hidden content once you thank this post.

 



Thanked by 87 Members:



0 user(s) are reading this topic

0 members, 0 guests, 0 anonymous users