Jump to content

Dobrodošli na Balkandownload.org
Tražite domaće knjige, exyu magazine, sinhronizirane crtane filmove, PC i ostale igre, strane i domaće filmove, dokumentarce, stranu i domaću muziku, itd. ? Ne morate tražiti dalje jer sve ćete to naći kod nas, uredno postavljeno i spremno za download. Osim toga registracijom možete sudjelovati u raznim postojećim temama na forumu, otvarati nove teme, sudjelovati u chatu i još mnogo toga. Ako već imaš otvoren račun, logiraj se ovde ,a ako želiš saznati zašto smo najbolji otvori novi račun i uverite se sami :)
Photo

Desant na Drvar (1963)


3 replies to this topic

#1
MaliGrizeBeton

MaliGrizeBeton

    Silver Member

  • Members
  • PipPipPipPipPip
  • 2,524 posts
  • 25890 thanks

Desant na Drvar (1963)

 
 

 



Thanked by 32 Members:
borop , dominic22 , mrvoje , Josip49 , micelj , Vule83 , ljudozderka8 , Stefi_1997 , TeodorM1976 , danGa , josipplitvić , lazukic , stonefish01 , dunavski , hopsi , ezdyg1944 , Kruno321 , somsi , jovicj , vuk5 , JovancaMicic , sanjaradojevic , Melitta , frilend , domachh , sanja58 , Zelenac1 , milandjusa , Marek Hahn , Ivan2010 , Edifier , atilaF

#2
Gagisha

Gagisha

    Silver Member

  • VIP
  • PipPipPipPipPip
  • 2,580 posts
  • 79569 thanks
  • LocationPeckam, London, UK

Desant na Drvar (1963)

 

 

 

VtSWOxV.png

 

 

xdFFVk8.jpg

 

 

eSC650l.png


Napomena: Za otpakivanje koristite najnoviju verziju programa Win Rar

 

 

Hidden Content
You'll be able to see the hidden content once you thank this post.


Thanked by 80 Members:

#3
LEMONZOO

LEMONZOO

    Bronze Member

  • VIP
  • PipPipPipPip
  • 1,182 posts
  • 25096 thanks
  • LocationGavran Mahala

Desant.na.Drvar.1963.HDTV.720p.x264

desant.jpg


Please Login or Register to see this Hidden Content


Desant na Drvar je jugoslovenski crno-beli partizanski film u režiji Fadila Hadžića.
Scenario, koji je Hadžić napisao zajedno sa Borom Ćosićem, prikazuje događaje vezane uz desant na Drvar, odnosno pokušaj nemačkih snaga da likvidiraju partizane iznenadnim padobranskim desantom na Drvar gde je tada bio smešten partizanski vrhovni komandant Tito.
Početkom 1944. godine Hitler naređuje svom generalu Renduliću da u najkraćem roku likvidira Josipa Broza Tita i ustanički pokret u Jugoslaviji koji predstavlja za Nemce stalnu opasnost. Iznenadni nemački desant na Drvar nije, uspeo zbog hrabrosti boraca u završnoj bici kod Titove pećine, koju Nemci žele da osvoje po svaku cenu.


Complete name                            : Desant.na.Drvar.1963.HDTV.720p.x264
Format                                   : MPEG-4
Format profile                           : Base Media
Codec ID                                 : isom (isom/mp41)
File size                                : 1.37 GiB
Duration                                 : 1 h 39 min
Overall bit rate mode                    : Constant
Overall bit rate                         : 1 961 kb/s
Encoded date                             : UTC 2018-04-24 17:08:46
Tagged date                              : UTC 2018-04-24 17:08:46

Video
ID                                       : 1
Format                                   : AVC
Format/Info                              : Advanced Video Codec
Format profile                           : [email protected]
Format settings, CABAC                   : No
Format settings, ReFrames                : 1 frame
Format settings, GOP                     : M=1, N=33
Codec ID                                 : avc1
Codec ID/Info                            : Advanced Video Coding
Duration                                 : 1 h 39 min
Source duration                          : 1 h 39 min
Bit rate mode                            : Constant
Bit rate                                 : 1 799 kb/s
Width                                    : 1 280 pixels
Height                                   : 720 pixels
Display aspect ratio                     : 16:9
Frame rate mode                          : Constant
Frame rate                               : 25.000 FPS
Standard                                 : PAL
Color space                              : YUV
Chroma subsampling                       : 4:2:0
Bit depth                                : 8 bits
Scan type                                : Progressive
Bits/(Pixel*Frame)                       : 0.078
Stream size                              : 1.20 GiB (87%)
Source stream size                       : 1.26 GiB (92%)
Language                                 : English
Encoded date                             : UTC 2018-04-24 17:08:46
Tagged date                              : UTC 2018-04-24 17:08:46
Color range                              : Limited

Audio
ID                                       : 2
Format                                   : AAC
Format/Info                              : Advanced Audio Codec
Format profile                           : LC
Codec ID                                 : 40
Duration                                 : 1 h 39 min
Bit rate mode                            : Constant
Bit rate                                 : 160 kb/s
Channel(s)                               : 2 channels
Channel positions                        : Front: L R
Sampling rate                            : 48.0 kHz
Frame rate                               : 46.875 FPS (1024 spf)
Compression mode                         : Lossy
Stream size                              : 114 MiB (8%)
Language                                 : Serbo-Croatian
Encoded date                             : UTC 2018-04-24 17:08:46
Tagged date                              : UTC 2018-04-24 17:08:46



image.png
image.png
image.png


Hidden Content
You'll be able to see the hidden content once you thank this post.


Thanked by 104 Members:

#4
Zoran

Zoran

    Gold Member

  • VIP
  • PipPipPipPipPipPip
  • 6,508 posts
  • 199719 thanks
Desant na Drvar (1963)
 
 
DesantnaDrvar1963.png
 
imdb6.jpg
 

Please Login or Register to see this Hidden Content

 
Pocetkom 1944. godine Hitler naredjuje svome generalu Rendulicu da u najkracem roku likvidira Josipa Broza Tita i ustanicki pokret u Jugoslaviji koji predstavlja za Nemce stalnu opasnost. Iznenadni nemacki dobro pripremljeni desant na Drvar nije, medjutim, uspeo zbog hrabrosti boraca u zavrsnoj bici kod Titove pecine, koju Nemci zele da osvoje po svaku cenu. 
 
qnprgyj9nvh.png
 
DesantnaDrvar1963.avi.gif
 
DesantnaDrvar1963.avi.jpg
 
downloade0cdd.gif
 
Desant na Drvar (1963) DVDRip.XviD.avi
 
 
 
SFYUbuP.jpg
 
Hidden Content
You'll be able to see the hidden content once you thank this post.

Molbe za moje linkove, šaljite na PP.


Zabranjeno je kopiranje mojih linkova,reupload i postavljanje na druge forume!


Thanked by 75 Members:
pina , miloradbo , muovi12 , vukoja , bestraga , Koke , milan1968 , sale6 , playlife , starikolekcionar , vujano1 , vorko , igor22 , ksi , dejavu66 , seboj , oxxo2206 , slavisa68 , zemo10 , HyPo007 , MegaSkot , smisno , Zagor74 , pufica , nebo_dark , mtkiki , ivica gavran , dominic22 , Nenad71088 , pepe333 , nsrule , MeHIg0r , zorrad , micelj , ddpp75 , Josip49 , GrizliBear , b50andi , lilke , milanalorica , Vule83 , mladja70 , Alamo74 , zoki71 , zubizareta , chirano1 , predrak , mondeo13 , Konstantin77 , pegaz111 , chefko , mikig , zvezdas , daxdo , dj1van , Melitta , elki69 , ljudozderka8 , Stefi_1997 , rafael13 , TeodorM1976 , kresomirovic , direhard , cicmica , mer , danep , MP22 , gor , matematic , daconikg1 , xonpe67 , rusko , gbarac , Franci , Smajo



0 user(s) are reading this topic

0 members, 0 guests, 0 anonymous users