Jump to content

Dobrodošli na Balkandownload.org
Tražite domaće knjige, exyu magazine, sinhronizirane crtane filmove, PC i ostale igre, strane i domaće filmove, dokumentarce, stranu i domaću muziku, itd. ? Ne morate tražiti dalje jer sve ćete to naći kod nas, uredno postavljeno i spremno za download. Osim toga registracijom možete sudjelovati u raznim postojećim temama na forumu, otvarati nove teme, sudjelovati u chatu i još mnogo toga. Ako već imaš otvoren račun, logiraj se ovde ,a ako želiš saznati zašto smo najbolji otvori novi račun i uverite se sami :)
Photo

Ko to tamo peva (1980)


7 replies to this topic

#1
Zoran_

Zoran_

    Gold Member

  • VIP
  • PipPipPipPipPipPip
  • 6,493 posts
  • 198721 thanks
Ko to tamo peva (1980)
 
 
Kototamopeva1980.png
 
imdb6.jpg
 

Please Login or Register to see this Hidden Content

 
Dan uoci fašistickog napada na Jugoslaviju, dotrajalim autobusom firme Krstic, za Beograd krece grupa ljudi. Putovanje se zbog nepredvidenih zbivanja odužilo na dvadeset i cetiri casa, iako je polazna stanica od Beograda udaljena jedva stotinak kilometara. Usput, pod utiskom rata u Evropi, putnici se svadaju i sukobljavaju. U Beograd stižu šestog aprila i prvi nalet fašistickih aviona uništava autobus.
 
Kototamopeva1980.avi.gif
 
3pFxE1H.jpg
 
downloade0cdd.gif
 
Ko to tamo peva (1980) DVDRip.XviD.avi
 
SFYUbuP.jpg
 
Hidden Content
You'll be able to see the hidden content once you thank this post.

Molbe za moje linkove, šaljite na PP.

 

Zabranjeno je kopiranje mojih linkova,reupload i postavljanje na druge forume!


Thanked by 413 Members:

#2
nikolakralj100

nikolakralj100

    Advanced Member

  • Members
  • PipPipPip
  • 356 posts
  • 28112 thanks

Ko to tamo peva (1980)  720p - Restaurirana verzija By VIP Kinoteka

*Nije web rip, nego web dl, da se zna :) 

 

qS2beD1.jpg

 

 

igNLYk7.jpg

LFB2pvr.jpg

0TDo1tx.jpg

 

 

Hidden Content
You'll be able to see the hidden content once you thank this post.


Edited by nikolakralj100, 18 July 2018 - 13:05.


Thanked by 263 Members:

#3
nikolakralj100

nikolakralj100

    Advanced Member

  • Members
  • PipPipPip
  • 356 posts
  • 28112 thanks

Ko to tamo peva (1980)  1080p - Restaurirana verzija By VIP Kinoteka

*Nije web rip, nego web dl, da se zna  :) 

 

oM2QMSE.jpg

 

RP7O2m3.jpg

OPbeVT9.jpg

WCmXinQ.jpg

 

Hidden Content
You'll be able to see the hidden content once you thank this post.


Thanked by 419 Members:

#4
Tobacco Road

Tobacco Road

    The Warez GOD

  • Tobacco
  • PipPipPipPipPipPipPipPipPipPip
  • 24,275 posts
  • 1223901 thanks
  • Locationscrls

Ko to tamo peva (1980) REMASTERED 720p WEB-DL x264 - BD4YU

 

G2OhMTM.jpg

 

 

Download

Hidden Content
You'll be able to see the hidden content once you thank this post.


 

 

Kako skinuti nesto sa Balkandownload-a?

www.slideshare.net/bd4yu/kako-skidati-fajlove-sa-balkan-download-a

Kako da pronadjete zeljeni sadrzaj na forumu? 

www.balkandownload.org/topic/40428-kako-pronaci-zeljeni-sadrzaj-na-forumu/

Najmračniji krugovi pakla su rezervisani za one koji u vremenima moralne krize ostanu neutralni i suzdržani -Dante Alighieri


Thanked by 220 Members:

#5
Zoran_

Zoran_

    Gold Member

  • VIP
  • PipPipPipPipPipPip
  • 6,493 posts
  • 198721 thanks
Ko to tamo peva (1980)
 
 
 
1xq0qdeswv.png
 
RCEFRx2.gif
 
8jmKKRJ.jpg
 
downloade0cdd.gif
 
Ko to tamo peva (1980) REMASTERED.WEB-DLRip.x264.mkv
 
SFYUbuP.jpg
 
Hidden Content
You'll be able to see the hidden content once you thank this post.

Molbe za moje linkove, šaljite na PP.

 

Zabranjeno je kopiranje mojih linkova,reupload i postavljanje na druge forume!


Thanked by 110 Members:

#6
Zoran_

Zoran_

    Gold Member

  • VIP
  • PipPipPipPipPipPip
  • 6,493 posts
  • 198721 thanks
Ko to tamo peva (1980)
 
 
 
omwdke92hk.png
 
YTKnQA3.gif
 
KDGOCLM.jpg
 
downloade0cdd.gif
 
Ko to tamo peva (1980) REMASTERED.1080p.WEB-DL.x264.mkv
 
SFYUbuP.jpg
 
Hidden Content
You'll be able to see the hidden content once you thank this post.

Molbe za moje linkove, šaljite na PP.

 

Zabranjeno je kopiranje mojih linkova,reupload i postavljanje na druge forume!


Thanked by 268 Members:

#7
Wolf 13

Wolf 13

    Advanced Member

  • Members
  • PipPipPip
  • 459 posts
  • 47348 thanks
Ko to tamo peva (1980) 1080p VIP Remastered DD5.1 x264 by Wolf
(MKV) HQ
 
1iWkor3.jpg
 

Please Login or Register to see this Hidden Content

 

General
Unique ID                   : 293869354992917410941558726776831504557 (0xDD152DD657C490D55F0DEFB31F5E70AD)
Complete name               : Ko to tamo peva (1980) 1080p VIP Remastered DD5.1 x264 by Wolf.mkv
Format                      : Matroska
Format version              : Version 4
File size                   : 1.10 GiB
Duration                    : 1 h 24 min
Overall bit rate            : 1 858 kb/s
Encoded date                : UTC 2020-05-10 17:05:46
Writing application         : mkvmerge v46.0.0 ('No Deeper Escape') 64-bit
Writing library             : libebml v1.3.10 + libmatroska v1.5.2
 
Video
ID                          : 1
Format                      : AVC
Format/Info                 : Advanced Video Codec
Format profile              : [email protected]
Format settings             : CABAC / 16 Ref Frames
Format settings, CABAC      : Yes
Format settings, Reference  : 16 frames
Codec ID                    : V_MPEG4/ISO/AVC
Duration                    : 1 h 24 min
Bit rate                    : 1 600 kb/s
Width                       : 1 840 pixels
Height                      : 1 080 pixels
Display aspect ratio        : 16:9
Original display aspect rat : 1.704
Frame rate mode             : Constant
Frame rate                  : 25.000 FPS
Color space                 : YUV
Chroma subsampling          : 4:2:0
Bit depth                   : 8 bits
Scan type                   : Progressive
Bits/(Pixel*Frame)          : 0.032
Stream size                 : 973 MiB (86%)
Title                       : Ko to tamo peva (1980)
Writing library             : x264 core 157 r2935 545de2f
Encoding settings           : cabac=1 / ref=16 / deblock=1:-1:-1 / analyse=0x3:0x133 / me=umh / subme=10 / psy=1 / psy_rd=1.00:0.15 / mixed_ref=1 / me_range=24 / chroma_me=1 / trellis=2 / 8x8dct=1 / cqm=0 / deadzone=21,11 / fast_pskip=1 / chroma_qp_offset=-3 / threads=6 / lookahead_threads=1 / sliced_threads=0 / nr=0 / decimate=1 / interlaced=0 / bluray_compat=0 / constrained_intra=0 / bframes=8 / b_pyramid=2 / b_adapt=2 / b_bias=0 / direct=3 / weightb=1 / open_gop=0 / weightp=2 / keyint=250 / keyint_min=25 / scenecut=40 / intra_refresh=0 / rc_lookahead=60 / rc=2pass / mbtree=1 / bitrate=1600 / ratetol=1.0 / qcomp=0.60 / qpmin=0 / qpmax=69 / qpstep=4 / cplxblur=20.0 / qblur=0.5 / vbv_maxrate=300000 / vbv_bufsize=300000 / nal_hrd=none / filler=0 / ip_ratio=1.40 / aq=1:1.00
Language                    : Serbian
Default                     : Yes
Forced                      : No
Color range                 : Limited
Color primaries             : BT.709
Transfer characteristics    : BT.709
Matrix coefficients         : BT.709
 
Audio
ID                          : 2
Format                      : E-AC-3
Format/Info                 : Enhanced AC-3
Commercial name             : Dolby Digital Plus
Codec ID                    : A_EAC3
Duration                    : 1 h 24 min
Bit rate mode               : Constant
Bit rate                    : 256 kb/s
Channel(s)                  : 6 channels
Channel layout              : L R C LFE Ls Rs
Sampling rate               : 48.0 kHz
Frame rate                  : 31.250 FPS (1536 SPF)
Compression mode            : Lossy
Delay relative to video     : -13 ms
Stream size                 : 156 MiB (14%)
Title                       : Ko to tamo peva (1980)
Language                    : Serbian
Service kind                : Complete Main
Default                     : Yes
Forced                      : No
 
epYscVA.png
Hidden Content
You'll be able to see the hidden content once you thank this post.
zbNKcak.jpg
Hidden Content
You'll be able to see the hidden content once you thank this post.
 
8lGFrJU.png
jNjkmLj.jpg


Thanked by 145 Members:

#8
dzoni2020

dzoni2020

    Advanced Member

  • Members
  • PipPipPip
  • 261 posts
  • 9140 thanks

Ko.to.tamo.peva.1980.HDTV.720p.x264

 

 

cd6e42ced769.jpg

 

QvE70tl.png

 

Hidden Content
You'll be able to see the hidden content once you thank this post.

 

Hidden Content
You'll be able to see the hidden content once you thank this post.


Edited by dzoni2020, 21 June 2020 - 23:01.


Thanked by 44 Members:
miki811 , zarb0n , ProfessorNiko , goran61 , nkvrzica , krstovic , cekerevac , boraborivoje , Emri , draganbauk , TeodorM1976 , markup , stevam , Petronije11 , kulin ban , tonyk , cubagrande , GigaMoravac11 , KokaRoka , COVID.19 , garix92 , zlaja67 , callipso , blauer , nikola37 , Wiplash , stacker170472 , dhorvat08 , terzamen , Kum Žoržo , amza , maxx79 , Zelenac1 , macessatt , danijeladanijel , mimi01 , mirko_cilicax , Usualman , Hap Hapablap , opetopet , fritz200300 , chadjox , zmijas , beograd1960'



0 user(s) are reading this topic

0 members, 0 guests, 0 anonymous users