Jump to content

Dobrodošli na Balkandownload.org
Tražite domaće knjige, exyu magazine, sinhronizirane crtane filmove, PC i ostale igre, strane i domaće filmove, dokumentarce, stranu i domaću muziku, itd. ? Ne morate tražiti dalje jer sve ćete to naći kod nas, uredno postavljeno i spremno za download. Osim toga registracijom možete sudjelovati u raznim postojećim temama na forumu, otvarati nove teme, sudjelovati u chatu i još mnogo toga. Ako već imaš otvoren račun, logiraj se ovde ,a ako želiš saznati zašto smo najbolji otvori novi račun i uverite se sami :)
Photo

Najbolji (1989)


3 replies to this topic

#1
Zoran

Zoran

    Gold Member

  • Moderator
  • PipPipPipPipPipPip
  • 7,215 posts
  • 273379 thanks

Najbolji (1989)


oT2mg3r.png

Su6Ksi6.jpg

Please Login or Register to see this Hidden Content


Prica o mladom oficiru koji zavrsava vojnu akademiju i odlazi iz Beograda u jedno malo mjesto. Napustajuci rodbinu, rodno mesto, prijatelje i devojku on odlucuje da zapocne novi zivot. Ovo je prica o tome kako svi narodi mogu da zive zajedno, o bratstvu i jedinstvu…

Molbe za moje linkove, šaljite na PP.


Zabranjeno je kopiranje mojih linkova,reupload i postavljanje na druge forume!


Thanked by 104 Members:

#2
Wolf 13

Wolf 13

    Advanced Member

  • Members
  • PipPipPip
  • 497 posts
  • 66310 thanks
Najbolji (1989) DVDrip DD5.1 x264 by Wolf
(MKV)
 
DncE9wR.jpg
 

Please Login or Register to see this Hidden Content

 

General
Unique ID                   : 280572311928829871740564867252655273894 (0xD31442FF7D74A5A509DE11057034B7A6)
Complete name               : Najbolji (1989) DVDrip DD5.1 x264 by Wolf.mkv
Format                      : Matroska
Format version              : Version 4
File size                   : 1.45 GiB
Duration                    : 1 h 51 min
Overall bit rate            : 1 858 kb/s
Encoded date                : UTC 2019-02-08 15:19:07
Writing application         : mkvmerge v30.1.0 ('Forever And More') 64-bit
Writing library             : libebml v1.3.6 + libmatroska v1.4.9 / Lavf58.20.100
 
Video
ID                          : 1
Format                      : AVC
Format/Info                 : Advanced Video Codec
Format profile              : [email protected]
Format settings             : CABAC / 8 Ref Frames
Format settings, CABAC      : Yes
Format settings, ReFrames   : 8 frames
Codec ID                    : V_MPEG4/ISO/AVC
Duration                    : 1 h 51 min
Bit rate                    : 1 600 kb/s
Width                       : 700 pixels
Height                      : 498 pixels
Display aspect ratio        : 16:9
Original display aspect rat : 3:2
Frame rate mode             : Constant
Frame rate                  : 25.000 FPS
Color space                 : YUV
Chroma subsampling          : 4:2:0
Bit depth                   : 8 bits
Scan type                   : Progressive
Bits/(Pixel*Frame)          : 0.184
Stream size                 : 1.25 GiB (86%)
Title                       : Najbolji (1989)
Writing library             : x264 core 157 r2935 545de2f
Encoding settings           : cabac=1 / ref=8 / deblock=1:-1:-1 / analyse=0x3:0x133 / me=umh / subme=9 / psy=1 / psy_rd=1.00:0.15 / mixed_ref=1 / me_range=16 / chroma_me=1 / trellis=2 / 8x8dct=1 / cqm=0 / deadzone=21,11 / fast_pskip=1 / chroma_qp_offset=-3 / threads=6 / lookahead_threads=1 / sliced_threads=0 / nr=0 / decimate=1 / interlaced=0 / bluray_compat=0 / constrained_intra=0 / bframes=3 / b_pyramid=2 / b_adapt=2 / b_bias=0 / direct=3 / weightb=1 / open_gop=0 / weightp=2 / keyint=250 / keyint_min=25 / scenecut=40 / intra_refresh=0 / rc_lookahead=60 / rc=2pass / mbtree=1 / bitrate=1600 / ratetol=1.0 / qcomp=0.60 / qpmin=0 / qpmax=69 / qpstep=4 / cplxblur=20.0 / qblur=0.5 / vbv_maxrate=300000 / vbv_bufsize=300000 / nal_hrd=none / filler=0 / ip_ratio=1.40 / aq=1:1.00
Language                    : Serbian
Default                     : Yes
Forced                      : No
Color range                 : Limited
Color primaries             : BT.601 PAL
Transfer characteristics    : BT.709
Matrix coefficients         : BT.601
 
Audio
ID                          : 2
Format                      : E-AC-3
Format/Info                 : Enhanced AC-3
Commercial name             : Dolby Digital Plus
Codec ID                    : A_EAC3
Duration                    : 1 h 51 min
Bit rate mode               : Constant
Bit rate                    : 256 kb/s
Channel(s)                  : 6 channels
Channel layout              : L R C LFE Ls Rs
Sampling rate               : 48.0 kHz
Frame rate                  : 31.250 FPS (1536 SPF)
Compression mode            : Lossy
Delay relative to video     : -5 ms
Stream size                 : 205 MiB (14%)
Title                       : Najbolji (1989)
Language                    : Serbian
Service kind                : Complete Main
Default                     : Yes
Forced                      : No
 
epYscVA.png
Hidden Content
You'll be able to see the hidden content once you thank this post.
 
jNoRWAa.png
Jzbl0K6.jpg
 
...Hvala Nikola


Thanked by 103 Members:

#3
Zoran

Zoran

    Gold Member

  • Moderator
  • PipPipPipPipPipPip
  • 7,215 posts
  • 273379 thanks

Najbolji (1989)




58q94wpc.png

jcRr1F1.gif

wE9Dh5D.jpg

Oets6ur.gif

Najbolji (1989) DVDRip.x264.mkv

Hidden Content
You'll be able to see the hidden content once you thank this post.

Molbe za moje linkove, šaljite na PP.


Zabranjeno je kopiranje mojih linkova,reupload i postavljanje na druge forume!


Thanked by 99 Members:

#4
*BD4YU*

*BD4YU*

    The Warez GOD

  • Global moderator
  • 14,472 posts
  • 497707 thanks

Najbolji.1989.1080p.HDTV.x264.AAC



TflGaLq.jpg



Please Login or Register to see this Hidden Content


4Iyafcm.png


WPLyYk4.png



8dvE3nI.png

Hidden Content
You'll be able to see the hidden content once you thank this post.

wFVYf1c.png

Hidden Content
You'll be able to see the hidden content once you thank this post.

hponL7S.png

Hidden Content
You'll be able to see the hidden content once you thank this post.

QaA0l88.png

Hidden Content
You'll be able to see the hidden content once you thank this post.

pxGh8hw.png

Hidden Content
You'll be able to see the hidden content once you thank this post.

ncWgK1q.png

Hidden Content
You'll be able to see the hidden content once you thank this post.


Thanked by 76 Members:



0 user(s) are reading this topic

0 members, 0 guests, 0 anonymous users