Jump to content

Dobrodošli na Balkandownload.org
Tražite domaće knjige, exyu magazine, sinhronizirane crtane filmove, PC i ostale igre, strane i domaće filmove, dokumentarce, stranu i domaću muziku, itd. ? Ne morate tražiti dalje jer sve ćete to naći kod nas, uredno postavljeno i spremno za download. Osim toga registracijom možete sudjelovati u raznim postojećim temama na forumu, otvarati nove teme, sudjelovati u chatu i još mnogo toga. Ako već imaš otvoren račun, logiraj se ovde ,a ako želiš saznati zašto smo najbolji otvori novi račun i uverite se sami :)
Photo

Nicija zemlja (2001)


4 replies to this topic

#1
Zoran

Zoran

    Gold Member

  • VIP
  • PipPipPipPipPipPip
  • 6,610 posts
  • 211632 thanks

Nicija zemlja (2001)


Nicijazemlja2001.png

imdb6.jpg
 

Please Login or Register to see this Hidden Content

Jednostavna prica o dvojici sukobljenih vojnika koji se, igrom slucaja, zateknu u istom rovu i pored ranjenika koji leži na mini. Ako se pomeri, mina ce eksplodirati i ubiti ih sve. Vremenom se na poprištu dogadjaja okupljaju i predstavnici medjunarodnih vojnih snaga (UNPROFOR) i novinari, više smetajuci nego želeci da pomognu.Dvojica ratnika se na kraju medjusobno ubiju, a posmatraci ostave ranjenika da se sam suoci sa sudbinom.


Molbe za moje linkove, šaljite na PP.


Zabranjeno je kopiranje mojih linkova,reupload i postavljanje na druge forume!


Thanked by 103 Members:

#2
Wolf 13

Wolf 13

    Advanced Member

  • Members
  • PipPipPip
  • 475 posts
  • 50959 thanks
No Man's Land (2001) 720p BRrip x264 by Wolf
(MKV)
 
HMbyDHF.jpg
 

Please Login or Register to see this Hidden Content

 

General
Unique ID                   : 191599749914613227092108606199874011013 (0x9024C5028630AE5E92A6EDF210B53F85)
Complete name               : No Man's Land (2001) 720p BRrip x264 by Wolf.mkv
Format                      : Matroska
Format version              : Version 2
File size                   : 797 MiB
Duration                    : 1 h 37 min
Overall bit rate            : 1 142 kb/s
Encoded date                : UTC 2017-01-03 09:58:33
Writing application         : mkvmerge v8.5.2 ('Crosses') 32bit
Writing library             : libebml v1.3.3 + libmatroska v1.4.4
 
Video
ID                          : 1
Format                      : AVC
Format/Info                 : Advanced Video Codec
Format profile              : [email protected]
Format settings             : CABAC / 4 Ref Frames
Format settings, CABAC      : Yes
Format settings, ReFrames   : 4 frames
Codec ID                    : V_MPEG4/ISO/AVC
Duration                    : 1 h 37 min
Bit rate                    : 1 094 kb/s
Width                       : 1 280 pixels
Height                      : 544 pixels
Display aspect ratio        : 2.35:1
Frame rate mode             : Constant
Frame rate                  : 23.976 (24000/1001) FPS
Color space                 : YUV
Chroma subsampling          : 4:2:0
Bit depth                   : 8 bits
Scan type                   : Progressive
Bits/(Pixel*Frame)          : 0.066
Stream size                 : 762 MiB (96%)
Writing library             : x264 core 148 r2638 7599210
Encoding settings           : cabac=1 / ref=3 / deblock=1:0:0 / analyse=0x3:0x113 / me=hex / subme=7 / psy=1 / psy_rd=1.00:0.00 / mixed_ref=1 / me_range=16 / chroma_me=1 / trellis=1 / 8x8dct=1 / cqm=0 / deadzone=21,11 / fast_pskip=1 / chroma_qp_offset=-2 / threads=3 / lookahead_threads=1 / sliced_threads=0 / nr=0 / decimate=1 / interlaced=0 / bluray_compat=0 / constrained_intra=0 / bframes=3 / b_pyramid=2 / b_adapt=1 / b_bias=0 / direct=1 / weightb=1 / open_gop=0 / weightp=2 / keyint=240 / keyint_min=23 / scenecut=40 / intra_refresh=0 / rc_lookahead=40 / rc=2pass / mbtree=1 / bitrate=1094 / ratetol=1.0 / qcomp=0.60 / qpmin=0 / qpmax=69 / qpstep=4 / cplxblur=20.0 / qblur=0.5 / ip_ratio=1.40 / aq=1:1.00
Language                    : English
Default                     : Yes
Forced                      : No
 
Audio
ID                          : 2
Format                      : AAC
Format/Info                 : Advanced Audio Codec
Format profile              : HE-AAC / LC
Format settings             : Explicit
Codec ID                    : A_AAC-2
Duration                    : 1 h 37 min
Bit rate                    : 48.0 kb/s
Channel(s)                  : 2 channels
Channel positions           : Front: L R
Sampling rate               : 48.0 kHz / 24.0 kHz
Frame rate                  : 23.438 FPS (1024 SPF)
Compression mode            : Lossy
Delay relative to video     : 31 ms
Stream size                 : 33.4 MiB (4%)
Title                       : NO MAN'S LAND
Language                    : Bosnian
Default                     : Yes
Forced                      : No
 
Text
ID                          : 3
Format                      : UTF-8
Codec ID                    : S_TEXT/UTF8
Codec ID/Info               : UTF-8 Plain Text
Duration                    : 1 h 28 min
Bit rate                    : 25 b/s
Count of elements           : 472
Stream size                 : 16.4 KiB (0%)
Title                       : NICIJA ZEMLJA
Language                    : Serbian
Default                     : Yes
Forced                      : No
 
epYscVA.png
Hidden Content
You'll be able to see the hidden content once you thank this post.
zbNKcak.jpg
Hidden Content
You'll be able to see the hidden content once you thank this post.
 
5rOLaF6.jpg
f2TJ8OA.jpg

Edited by Wolf 13, 05 May 2020 - 15:26.


Thanked by 158 Members:

#3
Zoran

Zoran

    Gold Member

  • VIP
  • PipPipPipPipPipPip
  • 6,610 posts
  • 211632 thanks
Nicija zemlja (2001)
 
 
Nicijazemlja2001.png
 
Su6Ksi6.jpg
 

Please Login or Register to see this Hidden Content

 
Jednostavna prica o dvojici sukobljenih vojnika koji se, igrom slucaja, zateknu u istom rovu i pored ranjenika koji leži na mini. Ako se pomeri, mina ce eksplodirati i ubiti ih sve. Vremenom se na poprištu dogadjaja okupljaju i predstavnici medjunarodnih vojnih snaga (UNPROFOR) i novinari, više smetajuci nego želeci da pomognu.Dvojica ratnika se na kraju medjusobno ubiju, a posmatraci ostave ranjenika da se sam suoci sa sudbinom.
 
Nicijazemlja2001.avi.gif
 
Nicijazemlja2001.avi.jpg
 
Oets6ur.gif
 
Nicija zemlja (2001) DVDRip avi
 
SFYUbuP.jpg
 
Hidden Content
You'll be able to see the hidden content once you thank this post.

Molbe za moje linkove, šaljite na PP.


Zabranjeno je kopiranje mojih linkova,reupload i postavljanje na druge forume!


Thanked by 110 Members:

#4
kostolomac

kostolomac

    Advanced Member

  • Members
  • PipPipPip
  • 149 posts
  • 15460 thanks

Nicija.Zemlja.2001.720p.BluRay.x264-NEO

 

Hidden Content
You'll be able to see the hidden content once you thank this post.



Thanked by 70 Members:
jagstepa , tordajav , fkjuventus , ex etfala , BgVč , bambam99 , chichavlada , slavisonac , Deceiver89 , mike_3 , pegaz111 , tvojvideo , TigarZ91 , Chamac96 , kenner , picek13 , Astra55 , autotronic , EMIRREAL , taurunumboy , mikula11 , Vladolin , Mb01 , jumanjinz , Franci , umpahpahindian , persifal2 , dukson1959 , Zelenac1 , Anki , opetopet , epikur69 , Miki_Kiki_Riki , Veduka , damblldorr , Aca700 , bobankos , Popmasina , xbihx , dominic22 , darkel99 , Jackie Chan , Ime , marcoman , KLAUDIJO22 , kale_cg , DJ Zlayo , grof65 , milance1969 , popesku , Yuppicide , Sanjin13 , mirko_cilicax , denimiko1 , bookworm020 , rusko , icaleptir , blauer , dzimislav leone , sdlder , BobbyPeruAd , ismail , Jev13 , beograd1960' , senilni , centrala88 , Urosito , danep , liquid , matematic

#5
Tobacco Road

Tobacco Road

    The Warez GOD

  • Tobacco
  • PipPipPipPipPipPipPipPipPipPip
  • 24,502 posts
  • 1271171 thanks
  • Locationscrls

Nicija zemlja (2001) 1080p BluRay x264 Flac 2.0 - BD4YU

 

9r1uJQZ.png

 

Download

Hidden Content
You'll be able to see the hidden content once you thank this post.


 

 

Kako skinuti nesto sa Balkandownload-a?

www.slideshare.net/bd4yu/kako-skidati-fajlove-sa-balkan-download-a

Kako da pronadjete zeljeni sadrzaj na forumu? 

www.balkandownload.org/topic/40428-kako-pronaci-zeljeni-sadrzaj-na-forumu/

Najmračniji krugovi pakla su rezervisani za one koji u vremenima moralne krize ostanu neutralni i suzdržani -Dante Alighieri


Thanked by 69 Members:
jagstepa , darkogunjaca , maliiva , jaran2017 , tordajav , itraxdata , NLZeljo , toskana , stane08 , ex etfala , vuk5 , Meda97 , bambam99 , predragr , starikolekcionar , z_radak , Dusan Torlakovic , slavisonac , Deceiver89 , mike_3 , pegaz111 , Sceko , iradul , thepilgrim , tvojvideo , TigarZ91 , helloone , Alex016 , osman33 , Astra55 , autotronic , tv312jf , stewie13 , taurunumboy , Ismet1968 , chicio , mikula11 , Vladolin , milance1969 , Jorgos , Wolf 13 , ismail , ivory , micelj , ARMY.PLL , dadoo980 , Zoran_ , umpahpahindian , kanalplus , mirko_cilicax , maestoso , lovaccc , papak3333 , tatotile12345 , Jokso , dukson1959 , Zelenac1 , alexxxxa , rusko , KLAUDIJO22 , asticus , blauer , ss_semi , epikur69 , icaleptir , Miki_Kiki_Riki , FoggyMan , Casino , beograd1960'



0 user(s) are reading this topic

0 members, 0 guests, 0 anonymous users