Jump to content

Dobrodošli na Balkandownload.org
Tražite domaće knjige, exyu magazine, sinhronizirane crtane filmove, PC i ostale igre, strane i domaće filmove, dokumentarce, stranu i domaću muziku, itd. ? Ne morate tražiti dalje jer sve ćete to naći kod nas, uredno postavljeno i spremno za download. Osim toga registracijom možete sudjelovati u raznim postojećim temama na forumu, otvarati nove teme, sudjelovati u chatu i još mnogo toga. Ako već imaš otvoren račun, logiraj se ovde ,a ako želiš saznati zašto smo najbolji otvori novi račun i uverite se sami :)
Photo

Sivi Kamion Crvene Boje (2004)


4 replies to this topic

#1
*BD4YU*

*BD4YU*

    The Warez GOD

  • Global moderator
  • 10,544 posts
  • 268518 thanks

Sivi.Kamion.Crvene.Boje.2004.DVDRip.XviD-DrSi

KhwABt8.jpg


Please Login or Register to see this Hidden Content


fnqUQ2d.jpg


dqOXBsM.png


ItjZYXc.jpg


9GqteMk.png


bjJCcDS.png

Hidden Content
You'll be able to see the hidden content once you thank this post.

LJx5GVx.png

Hidden Content
You'll be able to see the hidden content once you thank this post.

V2S2cuM.png

Hidden Content
You'll be able to see the hidden content once you thank this post.

LLmYmY8.png

Hidden Content
You'll be able to see the hidden content once you thank this post.

Edited by Casino, 18 March 2016 - 00:44.

imdb top 250 prevod

http://www.balkandownload.org/topic/40972-imdb-250-sa-prevodima/]

Thanked by 315 Members:

#2
Zoran_

Zoran_

    Gold Member

  • VIP
  • PipPipPipPipPipPip
  • 6,493 posts
  • 198724 thanks
Sivi kamion crvene boje (2004)
 
 
Sivikamioncrveneboje2004.png
 
Su6Ksi6.jpg
 

Please Login or Register to see this Hidden Content

 
Film pomalo neobicnog naslova Sivi kamion crvene boje je balkanski road-movie koji za temu ima poslednje dane mira u bivsoj Jugoslaviji i susret mladica iz Bosne i devojke iz Beograda, koji svako za sebe ima veliki problem. Ratko je daltonista i sitni kriminalac, a Suzana Beogradjanka koja saznavsi da je trudna, odlucuje da ode u Dubrovnik. Njihov susret postaje sudbonosan, jer iako se sve oko njih rusi, oni otkrivaju cudo ljubavi.
 
Sivikamioncrveneboje2004.avi.gif
 
Sivikamioncrveneboje2004.avi.jpg
 
Oets6ur.gif
 
Sivi kamion crvene boje (2004) DVDRip.XviD.avi
 
SFYUbuP.jpg
 
Hidden Content
You'll be able to see the hidden content once you thank this post.

Molbe za moje linkove, šaljite na PP.

 

Zabranjeno je kopiranje mojih linkova,reupload i postavljanje na druge forume!


Thanked by 183 Members:

#3
kostolomac

kostolomac

    Advanced Member

  • Members
  • PipPipPip
  • 148 posts
  • 15106 thanks

Sivi.Kamion.Crvene.Boje.2004.RERiP.WEBRip.x264-NEO

 

KhwABt8.jpg

Please Login or Register to see this Hidden Content

 

Nakon što slučajno zatrudni i razočara se u svojoj beogradskoj okolini, mlada rokerica Suzana (A. Balmazović) odluči otputovati u Dubrovnik, ne bi li tamo možda pronašla sreću. Na autocesti, stopirajući, naleti na Ratka (S. Todorović), nekvalificiranog vozača kamiona, daltonista, koji prevozi teret iz Srbije u Bosnu. Usprkos početnoj odbojnosti i gađenju, Suzana i Ratko polako se počnu zbližavati. Njihov put bit će sve neobičniji i neugodniji; oni će svako malo nailaziti na ne baš prijateljski nastrojene ljude, a polako će postajati svjesni da se sprema rat...

Komediju potpisuje srpski redatelj Srđan Koljević (poznat kao scenarist brojnih novijih filmova poput Nataša, Klopka i Nebeska udica), namijenivši glavne uloge Srđanu Todoroviću (sinu slavnoga Bore Todorovića), Aleksandri Balmazović (slovenskoj glumici, Rezervni deli) i drugim poznatim srpskim glumcima: D. Bjelogrliću, B. Dikliću i B. Milivojeviću.

 

 

Hidden Content
You'll be able to see the hidden content once you thank this post.



Thanked by 125 Members:

#4
Wolf 13

Wolf 13

    Advanced Member

  • Members
  • PipPipPip
  • 459 posts
  • 47350 thanks
Sivi kamion crvene boje (2004) WEBrip DD5.1 x264 by Wolf
(MKV)
 
KhwABt8.jpg
 

Please Login or Register to see this Hidden Content

 

General
Unique ID                   : 160221839206665213743020953980316402056 (0x78899A91CDCE0984D5AA8D3970BFC188)
Complete name               : Sivi kamion crvene boje (2004) WEBrip DD5.1 x264 by Wolf.mkv
Format                      : Matroska
Format version              : Version 4
File size                   : 1.31 GiB
Duration                    : 1 h 40 min
Overall bit rate            : 1 857 kb/s
Encoded date                : UTC 2019-10-29 14:58:26
Writing application         : mkvmerge v38.0.0 ('The Silent Type') 64-bit
Writing library             : libebml v1.3.9 + libmatroska v1.5.2
 
Video
ID                          : 1
Format                      : AVC
Format/Info                 : Advanced Video Codec
Format profile              : [email protected]
Format settings             : CABAC / 16 Ref Frames
Format settings, CABAC      : Yes
Format settings, Reference  : 16 frames
Codec ID                    : V_MPEG4/ISO/AVC
Duration                    : 1 h 40 min
Bit rate                    : 1 600 kb/s
Width                       : 960 pixels
Height                      : 540 pixels
Display aspect ratio        : 16:9
Frame rate mode             : Constant
Frame rate                  : 25.000 FPS
Color space                 : YUV
Chroma subsampling          : 4:2:0
Bit depth                   : 8 bits
Scan type                   : Progressive
Bits/(Pixel*Frame)          : 0.123
Stream size                 : 1.13 GiB (86%)
Title                       : Sivi kamion crvene boje (2004)
Writing library             : x264 core 157 r2935 545de2f
Encoding settings           : cabac=1 / ref=16 / deblock=1:-1:-1 / analyse=0x3:0x133 / me=umh / subme=10 / psy=1 / psy_rd=1.00:0.15 / mixed_ref=1 / me_range=24 / chroma_me=1 / trellis=2 / 8x8dct=1 / cqm=0 / deadzone=21,11 / fast_pskip=1 / chroma_qp_offset=-3 / threads=6 / lookahead_threads=1 / sliced_threads=0 / nr=0 / decimate=1 / interlaced=0 / bluray_compat=0 / constrained_intra=0 / bframes=8 / b_pyramid=2 / b_adapt=2 / b_bias=0 / direct=3 / weightb=1 / open_gop=0 / weightp=2 / keyint=250 / keyint_min=25 / scenecut=40 / intra_refresh=0 / rc_lookahead=60 / rc=2pass / mbtree=1 / bitrate=1600 / ratetol=1.0 / qcomp=0.60 / qpmin=0 / qpmax=69 / qpstep=4 / cplxblur=20.0 / qblur=0.5 / vbv_maxrate=300000 / vbv_bufsize=300000 / nal_hrd=none / filler=0 / ip_ratio=1.40 / aq=1:1.00
Language                    : Serbian
Default                     : Yes
Forced                      : No
Color range                 : Limited
Color primaries             : BT.601 NTSC
Transfer characteristics    : BT.709
Matrix coefficients         : BT.601
 
Audio
ID                          : 2
Format                      : E-AC-3
Format/Info                 : Enhanced AC-3
Commercial name             : Dolby Digital Plus
Codec ID                    : A_EAC3
Duration                    : 1 h 40 min
Bit rate mode               : Constant
Bit rate                    : 256 kb/s
Channel(s)                  : 6 channels
Channel layout              : L R C LFE Ls Rs
Sampling rate               : 48.0 kHz
Frame rate                  : 31.250 FPS (1536 SPF)
Compression mode            : Lossy
Delay relative to video     : -94 ms
Stream size                 : 185 MiB (14%)
Title                       : Sivi kamion crvene boje (2004)
Language                    : Serbian
Service kind                : Complete Main
Default                     : Yes
Forced                      : No
 
epYscVA.png
Hidden Content
You'll be able to see the hidden content once you thank this post.
zbNKcak.jpg
Hidden Content
You'll be able to see the hidden content once you thank this post.
 
CsqXjAq.png
L8fYO4B.jpg


Thanked by 126 Members:

#5
autotronic

autotronic

    Newbie

  • Members
  • Pip
  • 5 posts
  • 593 thanks

Sivi kamion crvene boje (2004) DVDrip 720p x264 by autotronic

 

Hidden Content
You'll be able to see the hidden content once you thank this post.

 

smgnnahb.jpg



Thanked by 85 Members:



0 user(s) are reading this topic

0 members, 0 guests, 0 anonymous users