Jump to content

Dobrodošli na Balkandownload.org
Tražite domaće knjige, exyu magazine, sinhronizirane crtane filmove, PC i ostale igre, strane i domaće filmove, dokumentarce, stranu i domaću muziku, itd. ? Ne morate tražiti dalje jer sve ćete to naći kod nas, uredno postavljeno i spremno za download. Osim toga registracijom možete sudjelovati u raznim postojećim temama na forumu, otvarati nove teme, sudjelovati u chatu i još mnogo toga. Ako već imaš otvoren račun, logiraj se ovde ,a ako želiš saznati zašto smo najbolji otvori novi račun i uverite se sami :)

Ivkova slava ( 2005 )


3 replies to this topic

#1
Guest_*offline*_*

Guest_*offline*_*
  • Guests
  • thanks

Ivkova.slava.2005.720p.WEB-DL.x264-Infamous2K


cPCL7wg.jpg



[quote]

Radnja filma se dešava u Nišu, krajem 19. veka nakon oslobođenja i neposredno nakon uspostavljanja železničke linije Beograd - Niš. Baš u to vreme, ugledni niški domaćin jorgandžija Ivko rešio je da u miru i slobodi proslavi Đurđevdan, svoju krsnu slavu.

Nakon višednevnih priprema pod budnim nadzorom Keve, Ivkove žene, osvanuo je i slavski dan. Napunila se kuća uglednim i manje uglednim građanima, a na čelo stola kao i svake godine zaseli su Ivkovi verni prijatelji, nadaleko čuveni maštar i lažov Kalča, ispičutura Smuk i veliki ješnik Kurjak. Svoje mesto za stolom našao je i Svetislav, mladić koji se uvukao na slavu zagledan u Mariolu, devojku koja služi goste, i za koga niko prisutan nije znao ko je i otkud se tu stvorio.
Producent: Dragan Bjelogrlić, Željko Mitrović, Goran Bjelogrlić    
Scenario: Zdravko Šotra
Režija: Zdravko Šotra, Miroslav Momčilović, Stevan Sremac    
Direktor fotografije: Veselko Krčmar    
Scenograf: Nemanja Petrović, Nikola Berček    
Kostimograf: Boris Čakširan
Kompozitor: Željko Joksimović    
Montažer: Petar Putniković    
Glumci: Dragan Bjelogrlić, Zoran Cvijanović, Milorad Mandić Manda, Velimir Bata Živojinović, Srđan Todorović, Nataša Ninković, Nikola Đuričko, Branimir Brstina, Anica Dobra, Dragan Nikolić, Vojislav Brajović, Predrag Ejdus



Thanked by 493 Members:

#2
*BD4YU*

*BD4YU*

    The Warez GOD

  • Global moderator
  • 10,553 posts
  • 269211 thanks

Ivkova slava (2005) DVD

3b6rJCH.jpg


Please Login or Register to see this Hidden Content


dhZnCgVg.jpg



9GqteMk.png



8dvE3nI.png

Hidden Content
You'll be able to see the hidden content once you thank this post.

wFVYf1c.png

Hidden Content
You'll be able to see the hidden content once you thank this post.

hponL7S.png

Hidden Content
You'll be able to see the hidden content once you thank this post.

86YG4nK.png

Hidden Content
You'll be able to see the hidden content once you thank this post.

imdb top 250 prevod

http://www.balkandownload.org/topic/40972-imdb-250-sa-prevodima/]

Thanked by 364 Members:

#3
Zoran

Zoran

    Gold Member

  • VIP
  • PipPipPipPipPipPip
  • 6,497 posts
  • 198980 thanks
Ivkova slava (2005)
 
 
ad0SnMq.png
 
Su6Ksi6.jpg
 

Please Login or Register to see this Hidden Content

 
Posle više pozorišnih adaptacija komedija Stevana Sremca, Ivkova slava doživljava prvu ekranizaciju. Jedan od najambicioznijih projekata u zemlji poslednjih godina, film Ivkova slava predstavlja kultni film naše Srbije, pogotovu grada Niša, gde se radnja i dogodila. Radnja filma se dogada na slavljenickoj krsnoj slavi Sveti Djordje Djurdjevdan u kuci gazda Ivka. Pored pristojnih gostiju došli su i oni drugi nezgodni gosti, koje je gazda Ivko negde i nekada nekom prilikom zadužio svojim ponašanjem, pa mu sada vracaju istom merom. Kurjak, Kalca i Smuk nikako ne izlaze iz doma gazda Ivka tri dana i tri noci tako da Ivko poziva predsednika opštine u pomoc, ali tek tada pocinje zaplet...Stara Srbija iz 19. veka je pred nama, zaplet i urnebesna komedija se završavaju srecno svadbom. 
 
qsDneYW.gif
 
zcQnzmF.jpg
 
Oets6ur.gif
 
Ivkova slava (2005) DVDRip avi
 
SFYUbuP.jpg
 
 
Hidden Content
You'll be able to see the hidden content once you thank this post.

Molbe za moje linkove, šaljite na PP.


Zabranjeno je kopiranje mojih linkova,reupload i postavljanje na druge forume!


Thanked by 184 Members:

#4
Wolf 13

Wolf 13

    Advanced Member

  • Members
  • PipPipPip
  • 459 posts
  • 47462 thanks
Ivkova slava (2005) 1080p HD DD5.1 x264 by Wolf
(MKV) HQ
 
icDoyTh.jpg
 

Please Login or Register to see this Hidden Content

 

General
Unique ID                   : 7950730437945346104615748710698172331 (0x5FB4146912FA22541BFAA4961F1BFAB)
Complete name               : Ivkova slava (2005) 1080p HD DD5.1 x264 by Wolf.mkv
Format                      : Matroska
Format version              : Version 4
File size                   : 1.38 GiB
Duration                    : 1 h 46 min
Overall bit rate            : 1 857 kb/s
Encoded date                : UTC 2020-08-03 14:45:06
Writing application         : mkvmerge v49.0.0 ('Sick Of Losing Soulmates') 64-bit
Writing library             : libebml v1.4.0 + libmatroska v1.6.1
 
Video
ID                          : 1
Format                      : AVC
Format/Info                 : Advanced Video Codec
Format profile              : [email protected]
Format settings             : CABAC / 16 Ref Frames
Format settings, CABAC      : Yes
Format settings, Reference  : 16 frames
Codec ID                    : V_MPEG4/ISO/AVC
Duration                    : 1 h 46 min
Bit rate                    : 1 600 kb/s
Width                       : 1 348 pixels
Height                      : 782 pixels
Display aspect ratio        : 16:9
Original display aspect rat : 1.299
Frame rate mode             : Constant
Frame rate                  : 25.000 FPS
Color space                 : YUV
Chroma subsampling          : 4:2:0
Bit depth                   : 8 bits
Scan type                   : Progressive
Bits/(Pixel*Frame)          : 0.061
Stream size                 : 1.19 GiB (86%)
Title                       : Ivkova slava (2005)
Writing library             : x264 core 157 r2935 545de2f
Encoding settings           : cabac=1 / ref=16 / deblock=1:-1:-1 / analyse=0x3:0x133 / me=umh / subme=10 / psy=1 / psy_rd=1.00:0.15 / mixed_ref=1 / me_range=24 / chroma_me=1 / trellis=2 / 8x8dct=1 / cqm=0 / deadzone=21,11 / fast_pskip=1 / chroma_qp_offset=-3 / threads=6 / lookahead_threads=1 / sliced_threads=0 / nr=0 / decimate=1 / interlaced=0 / bluray_compat=0 / constrained_intra=0 / bframes=8 / b_pyramid=2 / b_adapt=2 / b_bias=0 / direct=3 / weightb=1 / open_gop=0 / weightp=2 / keyint=250 / keyint_min=25 / scenecut=40 / intra_refresh=0 / rc_lookahead=60 / rc=2pass / mbtree=1 / bitrate=1600 / ratetol=1.0 / qcomp=0.60 / qpmin=0 / qpmax=69 / qpstep=4 / cplxblur=20.0 / qblur=0.5 / vbv_maxrate=300000 / vbv_bufsize=300000 / nal_hrd=none / filler=0 / ip_ratio=1.40 / aq=1:1.00
Language                    : Serbian
Default                     : Yes
Forced                      : No
Color range                 : Limited
Color primaries             : BT.709
Transfer characteristics    : BT.709
Matrix coefficients         : BT.709
 
Audio
ID                          : 2
Format                      : E-AC-3
Format/Info                 : Enhanced AC-3
Commercial name             : Dolby Digital Plus
Codec ID                    : A_EAC3
Duration                    : 1 h 46 min
Bit rate mode               : Constant
Bit rate                    : 256 kb/s
Channel(s)                  : 6 channels
Channel layout              : L R C LFE Ls Rs
Sampling rate               : 48.0 kHz
Frame rate                  : 31.250 FPS (1536 SPF)
Compression mode            : Lossy
Delay relative to video     : -5 ms
Stream size                 : 195 MiB (14%)
Title                       : Ivkova slava (2005)
Language                    : Serbian
Service kind                : Complete Main
Default                     : Yes
Forced                      : No
 
epYscVA.png
Hidden Content
You'll be able to see the hidden content once you thank this post.
zbNKcak.jpg
Hidden Content
You'll be able to see the hidden content once you thank this post.
 
f5r1F8s.png
T0A0PqA.jpg


Thanked by 30 Members:
balkanac011 , denimiko1 , Jorgos , papak3333 , kanalplus , radionica1 , spada , nnnxsz , bobankostic , danijeladanijel , i_023 , baneiv , MaliIgicGregor , zzoki , blauer , aca72 , robertp , blekstena , Zelenac1 , DJSpirina , Topcider , fffunkymannn , stankokljajic , aca0808 , ss_semi , fritz200300 , Miki_Kiki_Riki , Homss , aleksapet , beograd1960'



0 user(s) are reading this topic

0 members, 0 guests, 0 anonymous users