Jump to content

Dobrodošli na Balkandownload.org
Tražite domaće knjige, exyu magazine, sinhronizirane crtane filmove, PC i ostale igre, strane i domaće filmove, dokumentarce, stranu i domaću muziku, itd. ? Ne morate tražiti dalje jer sve ćete to naći kod nas, uredno postavljeno i spremno za download. Osim toga registracijom možete sudjelovati u raznim postojećim temama na forumu, otvarati nove teme, sudjelovati u chatu i još mnogo toga. Ako već imaš otvoren račun, logiraj se ovde ,a ako želiš saznati zašto smo najbolji otvori novi račun i uverite se sami :)
Photo

Motel Nana (2010)


3 replies to this topic

#1
nikolakralj100

nikolakralj100

    Advanced Member

  • Members
  • PipPipPip
  • 356 posts
  • 28116 thanks

Motel Nana (2010)


Motel_Nana.jpg


Ivan je profesor istorije, zaljubljen u Spartu. Zbog šamara učeniku suspenduju ga i premeštaju u školu u razrušenom selu u Bosni, pored Banja Luke. Na putu upoznaje Jasminu, koja se, na poziv prijatelja Hazima, vlasnika motela Nana, vraća iz Nemačke. Hoće li boravak u Bosni, u školi sa osam đaka različitog uzrasta i neobično prijateljstvo sa Domarom, pomoći Ivanu da donekle razume život? Jedan poljubac, u razrušenom selu, i još jedan šamar koji Ivan udara učeniku, spajaju Jasminu i Ivana u zajedničkom bekstvu od stvarnosti, u prašnjavom autobusu, u kome ni on ni ona neće hteti da sednu pored prozora... Hoće li njihov zajednički boravak u Bosni, u okruženju koje sa sobom nosi više humora nego tragedije, uspeti da se završi bolje nego što je počeo?




Edited by Casino, 14 March 2020 - 21:50.


Thanked by 136 Members:

#2
Wolf 13

Wolf 13

    Advanced Member

  • Members
  • PipPipPip
  • 459 posts
  • 47361 thanks
Motel Nana (2010) DVDrip DD5.1 x264 by Wolf
(MKV) HQ
 
4rhOxwF.jpg
 

Please Login or Register to see this Hidden Content

 

General
Unique ID                   : 24909447682644497320123523195035934270 (0x12BD629728E77893D8A9557A47435E3E)
Complete name               : Motel Nana (2010) DVDrip DD5.1 x264 by Wolf.mkv
Format                      : Matroska
Format version              : Version 4
File size                   : 1.17 GiB
Duration                    : 1 h 30 min
Overall bit rate            : 1 853 kb/s
Encoded date                : UTC 2019-03-05 17:34:18
Writing application         : mkvmerge v31.0.0 ('Dolores In A Shoestand') 64-bit
Writing library             : libebml v1.3.6 + libmatroska v1.4.9 / Lavf58.20.100
 
Video
ID                          : 1
Format                      : AVC
Format/Info                 : Advanced Video Codec
Format profile              : [email protected]
Format settings             : CABAC / 16 Ref Frames
Format settings, CABAC      : Yes
Format settings, ReFrames   : 16 frames
Codec ID                    : V_MPEG4/ISO/AVC
Duration                    : 1 h 30 min
Bit rate                    : 1 600 kb/s
Width                       : 720 pixels
Height                      : 512 pixels
Display aspect ratio        : 2.000
Frame rate mode             : Constant
Frame rate                  : 25.000 FPS
Color space                 : YUV
Chroma subsampling          : 4:2:0
Bit depth                   : 8 bits
Scan type                   : Progressive
Bits/(Pixel*Frame)          : 0.174
Stream size                 : 1.01 GiB (86%)
Title                       : Motel Nana (2010)
Writing library             : x264 core 157 r2935 545de2f
Encoding settings           : cabac=1 / ref=16 / deblock=1:-1:-1 / analyse=0x3:0x133 / me=umh / subme=10 / psy=1 / psy_rd=1.00:0.15 / mixed_ref=1 / me_range=24 / chroma_me=1 / trellis=2 / 8x8dct=1 / cqm=0 / deadzone=21,11 / fast_pskip=1 / chroma_qp_offset=-3 / threads=6 / lookahead_threads=1 / sliced_threads=0 / nr=0 / decimate=1 / interlaced=0 / bluray_compat=0 / constrained_intra=0 / bframes=8 / b_pyramid=2 / b_adapt=2 / b_bias=0 / direct=3 / weightb=1 / open_gop=0 / weightp=2 / keyint=250 / keyint_min=25 / scenecut=40 / intra_refresh=0 / rc_lookahead=60 / rc=2pass / mbtree=1 / bitrate=1600 / ratetol=1.0 / qcomp=0.60 / qpmin=0 / qpmax=69 / qpstep=4 / cplxblur=20.0 / qblur=0.5 / vbv_maxrate=300000 / vbv_bufsize=300000 / nal_hrd=none / filler=0 / ip_ratio=1.40 / aq=1:1.00
Language                    : Serbian
Default                     : Yes
Forced                      : No
Color range                 : Limited
Color primaries             : BT.601 PAL
Transfer characteristics    : BT.709
Matrix coefficients         : BT.601
 
Audio
ID                          : 2
Format                      : E-AC-3
Format/Info                 : Enhanced AC-3
Commercial name             : Dolby Digital Plus
Codec ID                    : A_EAC3
Duration                    : 1 h 30 min
Bit rate mode               : Constant
Bit rate                    : 256 kb/s
Channel(s)                  : 6 channels
Channel layout              : L R C LFE Ls Rs
Sampling rate               : 48.0 kHz
Frame rate                  : 31.250 FPS (1536 SPF)
Compression mode            : Lossy
Delay relative to video     : -5 ms
Stream size                 : 165 MiB (14%)
Title                       : Motel Nana (2010)
Language                    : Serbian
Service kind                : Complete Main
Default                     : Yes
Forced                      : No
 
epYscVA.png
Hidden Content
You'll be able to see the hidden content once you thank this post.
 
5CYd49T.png
r5CfVlP.jpg

Edited by Wolf 13, 05 March 2019 - 20:42.


Thanked by 117 Members:

#3
*BD4YU*

*BD4YU*

    The Warez GOD

  • Global moderator
  • 10,545 posts
  • 268566 thanks

Motel.Nana.2010.DVDRip.AAC.2.1-BD4YU



tqFH0gt.jpg



Please Login or Register to see this Hidden Content


z5y1BZ5.jpg



dqOXBsM.png


WhLl5C5.png



vbc5hZP.png


Bx488ZD.jpg



8dvE3nI.png

Hidden Content
You'll be able to see the hidden content once you thank this post.

wFVYf1c.png

Hidden Content
You'll be able to see the hidden content once you thank this post.

ncWgK1q.png

Hidden Content
You'll be able to see the hidden content once you thank this post.

V2S2cuM.png

Hidden Content
You'll be able to see the hidden content once you thank this post.

vFZ7g4f.png

Hidden Content
You'll be able to see the hidden content once you thank this post.

Edited by Sabah, 20 June 2019 - 20:59.

imdb top 250 prevod

http://www.balkandownload.org/topic/40972-imdb-250-sa-prevodima/]

Thanked by 61 Members:
Boki_KV , rmoraca , Branko79 , Bratija22 , Emri , willysj7 , pegaz111 , Lazarov , arhimanq700 , mudrica , niksi1210 , picek13 , petar_88 , emxes , direhard , cclive , Ig0r05 , walter13 , mikula11 , davidovich , miliandjelijater , vladopale , janaa , Miki_Kiki_Riki , Zoran_ , 710pa , sound-pg , zumbaroy , lepir , Recidiv , smisno , ycy5733 , Dejan-Car , Bumerang777 , baronrajo , 303808909 , lilke , Stipan8311 , the duke , Daki15 , amateri , satyr83 , blauer , ivcxo , epikur69 , soonka , sdlder , MaliIgicGregor , Zenicanin , 8C805w , ARMY.PLL , seisgk , zmajug , liquid , Zelenac1 , sasadjas , dodge , Anki , Biotloneta , opetopet , beograd1960'

#4
Zoran_

Zoran_

    Gold Member

  • VIP
  • PipPipPipPipPipPip
  • 6,493 posts
  • 198729 thanks

Motel Nana (2010)


xpNoQIj.png

Su6Ksi6.jpg

Please Login or Register to see this Hidden Content


Ivan je nastavnik istorije u zavrsnim razredima osnovne skole, neozenjen, zaljubljen u Spartu. Bez prijatelja, u skoli razgovara samo sa nastavnikom matematike, strastvenim sportskim kladionicarem, i Profankom, koja je zaljubljena u Ivana i zeli da mu rodi dete.

16ogqdn0mlh.png

bw6A2c8.gif

6pBfUwX.jpg

Oets6ur.gif

Motel Nana (2010) DVDRip.x264.mkv

SFYUbuP.jpg

Hidden Content
You'll be able to see the hidden content once you thank this post.

Molbe za moje linkove, šaljite na PP.

 

Zabranjeno je kopiranje mojih linkova,reupload i postavljanje na druge forume!


Thanked by 46 Members:
rmoraca , 1952 , undertaker , Emri , Miki473 , zoranclon , 515mrmot , mudrica , kbozic , novicanovica , emxes , TICA270 , Rokidzonboa , alando9 , kordunovac , wasp , alek984 , walter13 , mikula11 , mpascal , mspumpe , Zorrran , davidovich , Cocco Bill , akiro , radionica1 , dxdalibor , dukson1959 , GORANJ79 , sibiibis , micelj , Zelenac1 , Alamo74 , sasadjas , vasamiha , KIXX , Jokso , artcamora , epikur69 , MaliIgicGregor , mimi01 , nesom , beograd1960' , Nikola32 , Miki_Kiki_Riki , iceman_79



0 user(s) are reading this topic

0 members, 0 guests, 0 anonymous users