Jump to content

Dobrodošli na Balkandownload.org
Tražite domaće knjige, exyu magazine, sinhronizirane crtane filmove, PC i ostale igre, strane i domaće filmove, dokumentarce, stranu i domaću muziku, itd. ? Ne morate tražiti dalje jer sve ćete to naći kod nas, uredno postavljeno i spremno za download. Osim toga registracijom možete sudjelovati u raznim postojećim temama na forumu, otvarati nove teme, sudjelovati u chatu i još mnogo toga. Ako već imaš otvoren račun, logiraj se ovde ,a ako želiš saznati zašto smo najbolji otvori novi račun i uverite se sami :)
Photo

Gledanje filmova na TotalTV risiveru

TotalTV filmovi na prijemniku

  • Please log in to reply
1 reply to this topic

#1
Inside Out

Inside Out

    Newbie

  • Members
  • Pip
  • 46 posts
  • 247 thanks

Da li korisnici TotalTV-a mogu da gledaju download-ovane filmove sa USB-a?

 

Da li satelitski risiver može da pokrene ovaj fajl koji ima sledeće karakteristike:

 
 
 
 
General
Complete name               : D:\MEGA.nz\MEGAsync Imports\LJO sezona 2\LJO 44.mp4
Format                      : MPEG-4
Format profile              : Base Media
Codec ID                    : isom (isom/iso2/avc1/mp41)
File size                   : 750 MiB
Duration                    : 41 min 2 s
Overall bit rate mode       : Variable
Overall bit rate            : 2 555 kb/s
Encoded date                : UTC 2020-03-14 17:02:39
Tagged date                 : UTC 2020-03-14 17:02:39
Writing application         : Lavf54.63.104
 
Video
ID                          : 1
Format                      : AVC
Format/Info                 : Advanced Video Codec
Format profile              : [email protected]
Format settings             : CABAC / 1 Ref Frames
Format settings, CABAC      : Yes
Format settings, Reference  : 1 frame
Codec ID                    : avc1
Codec ID/Info               : Advanced Video Coding
Duration                    : 41 min 2 s
Bit rate                    : 2 394 kb/s
Width                       : 1 024 pixels
Height                      : 572 pixels
Display aspect ratio        : 16:9
Frame rate mode             : Constant
Frame rate                  : 25.000 FPS
Color space                 : YUV
Chroma subsampling          : 4:2:0
Bit depth                   : 8 bits
Scan type                   : Progressive
Bits/(Pixel*Frame)          : 0.163
Stream size                 : 704 MiB (94%)
Writing library             : x264 core 129
Encoding settings           : cabac=1 / ref=1 / deblock=1:0:0 / analyse=0x1:0x131 / me=dia / subme=2 / psy=1 / psy_rd=1.00:0.00 / mixed_ref=0 / me_range=16 / chroma_me=1 / trellis=0 / 8x8dct=0 / cqm=0 / deadzone=21,11 / fast_pskip=1 / chroma_qp_offset=0 / threads=12 / lookahead_threads=2 / sliced_threads=0 / nr=0 / decimate=1 / interlaced=0 / bluray_compat=0 / constrained_intra=0 / bframes=0 / weightp=2 / keyint=250 / keyint_min=25 / scenecut=40 / intra_refresh=0 / rc_lookahead=40 / rc=abr / mbtree=1 / bitrate=2394 / ratetol=1.0 / qcomp=0.60 / qpmin=10 / qpmax=51 / qpstep=4 / ip_ratio=1.41 / aq=1:1.00
Encoded date                : UTC 2020-03-14 17:02:39
Tagged date                 : UTC 2020-03-14 17:02:39
Codec configuration box     : avcC
 
Audio
ID                          : 2
Format                      : AAC LC
Format/Info                 : Advanced Audio Codec Low Complexity
Codec ID                    : mp4a-40-2
Duration                    : 41 min 2 s
Duration_FirstFrame         : 70 ms
Bit rate mode               : Variable
Bit rate                    : 152 kb/s
Maximum bit rate            : 176 kb/s
Channel(s)                  : 2 channels
Channel layout              : L R
Sampling rate               : 44.1 kHz
Frame rate                  : 43.066 FPS (1024 SPF)
Compression mode            : Lossy
Stream size                 : 44.6 MiB (6%)
Default                     : Yes
Alternate group             : 1
Encoded date                : UTC 2020-03-14 17:02:39
Tagged date                 : UTC 2020-03-14 17:02:39

 

 


lDxvIhB.gif


#2
*BD4YU*

*BD4YU*

    The Warez GOD

  • Global moderator
  • 14,922 posts
  • 520907 thanks

Ja mislim da bi mogao gledati preko HD Digitalnog recivera ali zaboravi snimanje jer i jedan reciver total tv dekriptuje snimanje.






0 user(s) are reading this topic

0 members, 0 guests, 0 anonymous users